[IFA1] Inuyasha Season 6 [Complete] [Triple Audio] (Animax Dubbed)


    Seeders : 1      Leechers : 10




Note :

Please Update (Trackers Info) Before Start "[IFA1] Inuyasha Season 6 [Complete] [Triple Audio] (Animax Dubbed)" Torrent Downloading to See Updated Seeders And Leechers for Batter Torrent Download Speed.

Trackers List

Tracker NameLast CheckStatusSeedersLeechers
udp://tracker.openbittorrent.com:80/announce1 Year+success18
http://open.nyaatorrents.info:6544/announce1 Year+success110
http://tracker.thepiratebay.org/announce1 Year+failed00
http://tracker.windsormetalbattery.com/announce1 Year+success00
http://tracker.winglai.com/announce1 Year+success00
udp://tracker.btzoo.eu:80/announce1 Year+failed00
http://torrent-tracker.ru/announce.php1 Year+failed00
http://torrent.gresille.org/announce1 Year+success00
http://tracker.best-torrents.net:6969/announce1 Year+failed00
udp://tracker.ilibr.org:6969/announce1 Year+failed00
udp://tracker.zond.org:80/announce1 Year+failed00
udp://tracker.coppersurfer.tk:801 Year+success00
http://announce.torrentsmd.com:6969/announce1 Year+failed00
http://bigfoot1942.sektori.org:6969/announce1 Year+success00
http://tracker.istole.it/announce1 Year+failed00
http://tracker.publicbt.com/announce1 Year+failed00
http://exodus.desync.com:6969/announce1 Year+failed00
http://tracker.nwps.ws:6969/announce1 Year+success00
udp://10.rarbg.me:80/announce1 Year+failed00
http://fr33dom.h33t.com:3310/announce1 Year+failed00
http://tracker.trackerfix.com/announce1 Year+success00
udp://9.rarbg.com:2710/announce1 Year+success00
udp://ipv4.tracker.harry.lu:80/announce1 Year+failed00
udp://tracker.istole.it:80/announce1 Year+failed00
udp://tracker.publicbt.com:80/announce1 Year+failed00
udp://open.demonii.com:1337/announce1 Year+success00
udp://tracker.ccc.de:80/announce1 Year+failed00
udp://tracker.token.ro:80/announce1 Year+failed00



Torrent File Content (27 files)


Season 6
     [IFA1][Mavrik][Blitz]-Inysha-139_TA_[AnimeIndia].mkv -
118.92 MB

     [IFA1][Mavrik][Blitz]-Inysha-140_TA_[AnimeIndia].mkv -
118.71 MB

     [IFA1][Mavrik][Blitz]-Inysha-141_TA_[AnimeIndia].mkv -
118.94 MB

     [IFA1][Mavrik][Blitz]-Inysha-142_TA_[AnimeIndia].mkv -
119.01 MB

     [IFA1][Mavrik][Blitz]-Inysha-143_TA_[AnimeIndia].mkv -
119.89 MB

     [IFA1][Mavrik][Blitz]-Inysha-144_TA_[AnimeIndia].mkv -
119.28 MB

     [IFA1][Mavrik][Blitz]-Inysha-145_TA_[AnimeIndia].mkv -
119.08 MB

     [IFA1][Mavrik][Blitz]-Inysha-146_TA_[AnimeIndia].mkv -
118.92 MB

     [IFA1][Mavrik][Blitz]-Inysha-147-148_TA_[AnimeIndia].mkv -
226.66 MB

     [IFA1][Mavrik][Blitz]-Inysha-149_TA_[AnimeIndia].mkv -
118.82 MB

     [IFA1][Mavrik][Blitz]-Inysha-150_TA_[AnimeIndia].mkv -
118.93 MB

     [IFA1][Mavrik][Blitz]-Inysha-151_TA_[AnimeIndia].mkv -
118.91 MB

     [IFA1][Mavrik][Blitz]-Inysha-152_TA_[AnimeIndia].mkv -
119.17 MB

     [IFA1][Mavrik][Blitz]-Inysha-153_TA_[AnimeIndia].mkv -
119.22 MB

     [IFA1][Mavrik][Blitz]-Inysha-154_TA_[AnimeIndia].mkv -
119.3 MB

     [IFA1][Mavrik][Blitz]-Inysha-155_TA_[AnimeIndia].mkv -
118.95 MB

     [IFA1][Mavrik][Blitz]-Inysha-156_TA_[AnimeIndia].mkv -
118.87 MB

     [IFA1][Mavrik][Blitz]-Inysha-157_TA_[AnimeIndia].mkv -
118.46 MB

     [IFA1][Mavrik][Blitz]-Inysha-158_TA_[AnimeIndia].mkv -
118.82 MB

     [IFA1][Mavrik][Blitz]-Inysha-159_TA_[AnimeIndia].mkv -
118.9 MB

     [IFA1][Mavrik][Blitz]-Inysha-160_TA_[AnimeIndia].mkv -
118.82 MB

     [IFA1][Mavrik][Blitz]-Inysha-161_TA_[AnimeIndia].mkv -
117.72 MB

     [IFA1][Mavrik][Blitz]-Inysha-162_TA_[AnimeIndia].mkv -
118.02 MB

     [IFA1][Mavrik][Blitz]-Inysha-163_TA_[AnimeIndia].mkv -
118.84 MB

     [IFA1][Mavrik][Blitz]-Inysha-164_TA_[AnimeIndia].mkv -
117.96 MB

     [IFA1][Mavrik][Blitz]-Inysha-165_TA_[AnimeIndia].mkv -
117.44 MB

     [IFA1][Mavrik][Blitz]-Inysha-166-167_TA_[AnimeIndia].mkv -
299.48 MB



Description



 							image

Inuyasha

Synopsis: Based on the manga series by Takahashi Rumiko of Ranma 1/2, Urusei Yatsura and Maison Ikkoku fame, Inu Yasha alternates between present day Japan and feudal times.

Inu Yasha a half monster - half human once sought the Shikon jewel. The jewel is said to be able to to increase the strength and powers of monster-kind as well as those humans who possess such characteristics in spirit. In an effort to expunge his human traits and become fully of the monster-kind, Inu Yasha tried to steal the jewel from the village where it was guarded. While he was able to steal the jewel briefly, he was later shot and sealed away by Kikyou, village guardian against monstrous kind, and master archer. Kikyou after sealing Inu Yasha's power with her arrow, died later that day. Her final wish was that the Shikon jewel be cremated with her thus destroying it and removing it from the world. However...

Kikyou's spirit is later reborn in Higurashi Kagome, a young 15 year old high school girl. Born into a Shinto family, her grandfather cares for one of the local shrines. However, upon her 15th birthday, Kagome's world is turned upside down when she is attacked by a centipedal monster and is transported to another era. A time when monsters roam the earth and seek the powers of the Shikon jewel.

Info :

Type: TV Series
Episodes: 167
Average File Size: ~120 MB
Video: h264/AVC
Container: MKV
Audio 1: English (Animax) @ 96/128 kbps mp3/Vorbis
Audio 2: English (Ocean Group)
Audio 3: Japanese
Animax Audio recorded by: Inuyashakagomefa1, amp, Anime-Guru, Sesshomaru, fullmetal1, 6pack
Audio timed by: Inuyashakagomefa1
Fansub Group: [Blitz] & [Anime-Supreme]
Reencoded by: Mavrik & asckj1

General
Unique ID : 219823093967471675948394973051751119773 (0xA560634E54A2FBC9823B991A8AAA3B9D)
Format : Matroska
Format version : Version 2
File size : 115 MiB
Duration : 24mn 19s
Overall bit rate mode : Variable
Overall bit rate : 663 Kbps
Encoded date : UTC 2011-06-16 16:28:06
Writing application : mkvmerge v4.4.0 ('Die Wiederkehr') built on Oct 31 2010 21:52:48
Writing library : libebml v1.0.0 + libmatroska v1.0.0

Video
ID : 1
Format : AVC
Format/Info : Advanced Video Codec
Format profile : [email protected]
Format settings, CABAC : Yes
Format settings, ReFrames : 8 frames
Muxing mode : Header stripping
Codec ID : V_MPEG4/ISO/AVC
Duration : 24mn 19s
Bit rate : 298 Kbps
Nominal bit rate : 325 Kbps
Width : 640 pixels
Height : 480 pixels
Display aspect ratio : 4:3
Frame rate mode : Constant
Frame rate : 23.976 fps
Color space : YUV
Chroma subsampling : 4:2:0
Bit depth : 8 bits
Scan type : Progressive
Bits/(Pixel*Frame) : 0.040
Stream size : 51.8 MiB (45%)
Writing library : x264 core 56 svn-676
Encoding settings : cabac=1 / ref=5 / deblock=1:1:1 / analyse=0x3:0x133 / me=umh / subme=7 / brdo=1 / mixed_ref=1 / me_range=16 / chroma_me=1 / trellis=2 / 8x8dct=1 / cqm=0 / deadzone=21,11 / chroma_qp_offset=0 / threads=6 / nr=0 / decimate=1 / mbaff=0 / bframes=5 / b_pyramid=1 / b_adapt=1 / b_bias=0 / direct=1 / wpredb=1 / bime=1 / keyint=250 / keyint_min=25 / scenecut=40(pre) / rc=2pass / bitrate=325 / ratetol=1.0 / rceq='blurCplx^(1-qComp)' / qcomp=0.60 / qpmin=10 / qpmax=51 / qpstep=4 / cplxblur=20.0 / qblur=0.5 / ip_ratio=1.40 / pb_ratio=1.30
Default : Yes
Forced : No

Audio #1
ID : 2
Format : MPEG Audio
Format version : Version 1
Format profile : Layer 3
Muxing mode : Header stripping
Codec ID : A_MPEG/L3
Codec ID/Hint : MP3
Duration : 24mn 19s
Bit rate mode : Constant
Bit rate : 96.0 Kbps
Channel(s) : 2 channels
Sampling rate : 44.1 KHz
Compression mode : Lossy
Stream size : 16.7 MiB (14%)
Title : animax dubbed
Language : English
Default : Yes
Forced : No

Audio #2
ID : 3
Format : Vorbis
Format settings, Floor : 1
Codec ID : A_VORBIS
Duration : 24mn 19s
Bit rate mode : Variable
Bit rate : 128 Kbps
Channel(s) : 2 channels
Sampling rate : 48.0 KHz
Compression mode : Lossy
Stream size : 22.3 MiB (19%)
Writing application : Made with BeSweet v1.5b25
Writing library : libVorbis 1.0.1 (UTC 2003-09-09)
Language : English
Default : No
Forced : No
Encoded_Application/Url : http://DSPguru.doom9.org

Audio #3
ID : 4
Format : Vorbis
Format settings, Floor : 1
Codec ID : A_VORBIS
Duration : 24mn 19s
Bit rate mode : Variable
Bit rate : 128 Kbps
Channel(s) : 2 channels
Sampling rate : 48.0 KHz
Compression mode : Lossy
Stream size : 22.3 MiB (19%)
Writing application : Made with BeSweet v1.5b25
Writing library : libVorbis 1.0.1 (UTC 2003-09-09)
Language : Japanese
Default : No
Forced : No
Encoded_Application/Url : http://DSPguru.doom9.org

Text #1
ID : 5
Format : ASS
Codec ID : S_TEXT/ASS
Codec ID/Info : Advanced Sub Station Alpha
Compression mode : Lossless
Title : animax dubbed voice cast
Language : English
Default : Yes
Forced : No

Text #2
ID : 6
Format : UTF-8
Codec ID : S_TEXT/UTF8
Codec ID/Info : UTF-8 Plain Text
Language : English
Default : No
Forced : No



Screenshots in "Screenshots" tab



Don't Forget To Comment and Give THUMBS UP.

Released by Anime India Team

All credit goes to Anime India website for the episodes (uploader on the website - inuyashakagomef) and of course to Animax for dubbing it.

Courtesy: Channel - Animax
Website - Animeindia.com
Uploader- inuyashakagomef (not me)

imageimageimage

Related torrents

Torrent NameAddedSizeSeedLeechHealth
1 Year+ - in Anime.108.28 MB00
1 Year+ - in Anime.110.31 MB01
1 Year+ - in Anime.121.95 MB01
1 Year+ - in Anime.136.02 MB00
1 Year+ - in Anime.124.91 MB00

Note :

Feel free to post any comments about this torrent, including links to Subtitle, samples, screenshots, or any other relevant information. Watch [IFA1] Inuyasha Season 6 [Complete] [Triple Audio] (Animax Dubbed) Full Movie Online Free, Like 123Movies, FMovies, Putlocker, Netflix or Direct Download Torrent [IFA1] Inuyasha Season 6 [Complete] [Triple Audio] (Animax Dubbed) via Magnet Download Link.

Comments (0 Comments)




Please login or create a FREE account to post comments

People Searches