[MT]RamJi Londonwaley ~2005~ 400MB DvD Rip -=[AzE]=- @www.mastitorrents.com


    Seeders : 0      Leechers : 0

Warning! Please Download Torrents with a VPN.
Your IP Address is 18.234.51.17.   And Location is United States, Ashburn
Your Internet Service Provider and Government can track your Online Activity!  Protect yourself from expensive lawsuits and fines NOW!
We Strongly Recommend Using FREE VPN for P2P to Anonymize your Torrenting.

Note :

Please Update (Trackers Info) Before Start Torrents Downloading to See Updated Seeders And Leechers for Batter Download Speed.

Trackers List

Tracker NameLast CheckStatusSeedersLeechers



Torrent File Content (2 files)


RamJi Londonwaley ~2005~ 400MB.DvD.Rip.-=[AzE]=-
     RamJi Londonwaley ~2005~ 400MB.DvD.Rip.-=[AzE]=-.mkv -
395.68 MB

     RipInfo.txt.txt -
1.87 KB



Description



RipInfo:
Format : Matroska
File size : 396 MiB
Duration : 2h 41mn
Overall bit rate : 343 Kbps
Encoded date : UTC 2009-09-21 17:24:31

Video
ID : 1
Format : AVC
Format/Info : Advanced Video Codec
Format profile : [email protected]
Format settings, CABAC : Yes
Format settings, ReFrames : 4 frames
Muxing mode : Container [email protected]
Codec ID : V_MPEG4/ISO/AVC
Duration : 2h 41mn
Bit rate : 256 Kbps
Nominal bit rate : 261 Kbps
Width : 608 pixels
Height : 272 pixels
Display aspect ratio : 2.25:1
Frame rate : 29.970 fps
Resolution : 24 bits
Colorimetry : 4:2:0
Scan type : Progressive
Bits/(Pixel*Frame) : 0.052
Stream size : 295 MiB (75%)
Writing library : x264 core 68 r1183M f21daff
Language : Hindi

Audio
ID : 2
Format : MPEG Audio
Format version : Version 1
Format profile : Layer 3
Codec ID : A_MPEG/L3
Codec ID/Hint : MP3
Duration : 2h 41mn
Bit rate mode : Constant
Bit rate : 80.0 Kbps
Channel(s) : 2 channels
Sampling rate : 32.0 KHz
Resolution : 16 bits
Stream size : 92.3 MiB (23%)
Writing library : LAME3.98a

Screen Shoots:
http://i34.tinypic.com/24eno6d.jpg

http://i34.tinypic.com/2ikyt5d.jpg

http://i38.tinypic.com/dnc3dy.jpg

http://i38.tinypic.com/ly5qt.jpg

http://i33.tinypic.com/2qn86fs.jpg

http://i36.tinypic.com/l9qmf.jpg

http://i35.tinypic.com/34984ev.jpg

http://i38.tinypic.com/1z6wdw6.jpg

For more Details and more Fun visit www.mastitorrents.com

Related torrents

Torrent NameAddedSizeSeedLeechHealth
1 Year+ - in Movies1.01 GB00
1 Year+ - in Movies691.5 MB14
1 Year+ - in Movies350.82 MB0221
1 Year+ - in Movies714.44 MB24
1 Year+ - in Movies456.29 MB10

Note :

Feel free to post any comments about this torrent, including links to Subtitle, samples, screenshots, or any other relevant information. Please Dont Download anything from Comments And Links to Streaming Sites like Watch Online [MT]RamJi Londonwaley ~2005~ 400MB DvD Rip -=[AzE]=- @www.mastitorrents.com Full Movie free etc.

Comments (0 Comments)




Please login or create a FREE account to post comments

Latest Searches