Project Almanac 2014 1080p BluRay H264 AAC-RARBG


    Seeders : 0      Leechers : 1

Hash :0D350AE8EBD9DE6184F4863D5E664D22A0235CB7
Added :1 Year+ in Other - Other
Size :2.05 GB
Stream :Watch FREE Full Movies @ Movie4u


Project Almanac 2014 1080p BluRay H264 AAC-RARBG
Download your torrents safely! And Anonymously!








Please Turn on your VPN before Downloading Torrents.
Your IP Address is 18.207.252.123.   And Location United States, Ashburn
Your Internet Service Provider and Government can track your Online Activity!  Protect yourself from expensive lawsuits and fines NOW!
We Strongly Recommend Using Very Cheap VPN for P2P to Anonymize your Torrenting.

Note :

Please Update (Trackers Info) Before Start Torrents Downloading to See Updated Seeders And Leechers for Batter Download Speed.

Trackers List

Tracker NameLast CheckStatusSeedersLeechers
udp://tracker.mg64.net:6969/announceYesterdayfailed00
udp://tracker.justseed.it:1337/announceYesterdaysuccess00
udp://ipv6.tracker.harry.lu:80/announceYesterdaysuccess00
udp://bt.xxx-tracker.com:2710/announceYesterdayfailed00
http://torrent-tracker.ru/announce.phpYesterdayfailed00
udp://tracker.btzoo.eu:80/announceYesterdayfailed00
http://tracker.winglai.com/announceYesterdayfailed00
http://tracker.windsormetalbattery.com/announceYesterdayfailed00
udp://9.rarbg.to:2710/announceYesterdayfailed00
udp://tracker.opentrackr.org:1337/announceYesterdaysuccess01
udp://tracker.tiny-vps.com:6969/announceYesterdaysuccess00
udp://tracker.internetwarriors.net:1337/announceYesterdaysuccess00
udp://open.stealth.si:80/announceYesterdaysuccess00
udp://tracker.torrent.eu.org:451/announceYesterdaysuccess00
udp://eddie4.nl:6969/announceYesterdayfailed00
udp://9.rarbg.me:2740/announceYesterdaysuccess00
udp://9.rarbg.me:2730/announce3 days agofailed00
udp://9.rarbg.me:2770/announceYesterdayfailed00
udp://tracker.zer0day.to:1337/announceYesterdayfailed00
udp://9.rarbg.to:2740/announce3 days agofailed00
udp://9.rarbg.to:2730/announceYesterdayfailed00
udp://9.rarbg.to:2770/announceYesterdaysuccess00
udp://tracker.pirateparty.gr:6969/announceYesterdaysuccess01
udp://9.rarbg.to:2720/announceYesterdayfailed00
udp://retracker.lanta-net.ru:2710/announceYesterdaysuccess00
udp://tracker.cyberia.is:6969/announceYesterdaysuccess00
udp://tracker.port443.xyz:6969/announceYesterdayfailed00
http://tracker.nwps.ws:6969/announceYesterdayfailed00
udp://tracker.token.ro:80/announceYesterdayfailed00
udp://tracker.ccc.de:80/announceYesterdayfailed00
udp://open.demonii.com:1337/announceYesterdayfailed00
udp://tracker.publicbt.com:80/announceYesterdayfailed00
udp://tracker.openbittorrent.com:80/announceYesterdaysuccess00
udp://tracker.istole.it:80/announceYesterdayfailed00
udp://ipv4.tracker.harry.lu:80/announceYesterdaysuccess00
udp://9.rarbg.me:2710/announceYesterdayfailed00
udp://9.rarbg.com:2710/announceYesterdayfailed00
http://tracker.trackerfix.com/announceYesterdayfailed00
udp://exodus.desync.com:6969/announceYesterdaysuccess00
http://fr33dom.h33t.com:3310/announceYesterdayfailed00
udp://10.rarbg.me:80/announceYesterdayfailed00
http://tracker.publicbt.com/announceYesterdayfailed00
http://exodus.desync.com:6969/announceYesterdayfailed00
udp://tracker.leechers-paradise.org:6969/announceYesterdayfailed00
http://tracker.thepiratebay.org/announceYesterdayfailed00
udp://tracker.coppersurfer.tk:6969/announceYesterdayfailed00
http://tracker.istole.it/announceYesterdayfailed00
http://bigfoot1942.sektori.org:6969/announceYesterdayfailed00
http://announce.torrentsmd.com:6969/announceYesterdayfailed00
udp://tracker.coppersurfer.tk:80Yesterdayfailed00
udp://tracker.zond.org:80/announceYesterdaysuccess00
udp://tracker.ilibr.org:6969/announceYesterdayfailed00
http://tracker.best-torrents.net:6969/announceYesterdayfailed00
http://torrent.gresille.org/announceYesterdayfailed00



Torrent File Content (6 files)


Project.Almanac.2014.1080p.BluRay.H264.AAC-RARBG
     Project.Almanac.2014.1080p.BluRay.H264.AAC-RARBG.mp4 -
2.03 GB

     Project.Almanac.2014.1080p.BluRay.H264.AAC-RARBG.nfo -
5.75 KB

     RARBG.COM.mp4 -
992.93 KB

     RARBG.COM.txt -
34 bytes

    Subs
          Project.Almanac.2014.1080p.BluRay.H264.AAC-RARBG.idx -
197.16 KB

          Project.Almanac.2014.1080p.BluRay.H264.AAC-RARBG.sub -
27.42 MB



Description



 							

https://rarbg.to/


http://www.imdb.com/title/tt2436386/
image
image
image
image
image


[mediainfo]
Video
ID : 1
Format : AVC
Format/Info : Advanced Video Codec
Format profile : [email protected]
Format settings, CABAC : Yes
Format settings, ReFrames : 4 frames
Codec ID : avc1
Codec ID/Info : Advanced Video Coding
Duration : 1h 46mn
Bit rate : 2 500 Kbps
Width : 1 920 pixels
Height : 800 pixels
Display aspect ratio : 2.40:1
Frame rate mode : Constant
Frame rate : 23.976 fps
Color space : YUV
Chroma subsampling : 4:2:0
Bit depth : 8 bits
Scan type : Progressive
Bits/(Pixel*Frame) : 0.068
Stream size : 1.85 GiB (92%)
Writing library : x264 core 144 r2525M 40bb568
Encoding settings : cabac=1 / ref=4 / deblock=1:-1:-1 / analyse=0x3:0x113 / me=umh / subme=9 / psy=1 / psy_rd=1.00:0.15 / mixed_ref=1 / me_range=24 / chroma_me=1 / trellis=2 / 8x8dct=1 / cqm=0 / deadzone=21,11 / fast_pskip=1 / chroma_qp_offset=-3 / threads=32 / lookahead_threads=4 / sliced_threads=0 / nr=0 / decimate=1 / interlaced=0 / bluray_compat=0 / constrained_intra=0 / bframes=3 / b_pyramid=2 / b_adapt=1 / b_bias=0 / direct=1 / weightb=1 / open_gop=0 / weightp=2 / keyint=250 / keyint_min=25 / scenecut=40 / intra_refresh=0 / rc_lookahead=50 / rc=2pass / mbtree=1 / bitrate=2500 / ratetol=1.0 / qcomp=0.60 / qpmin=0 / qpmax=69 / qpstep=4 / cplxblur=20.0 / qblur=0.5 / vbv_maxrate=31250 / vbv_bufsize=31250 / nal_hrd=none / filler=0 / ip_ratio=1.40 / aq=3:1.00
Encoded date : UTC 1904-01-01 00:00:00
Tagged date : UTC 1904-01-01 00:00:00

Audio
ID : 2
Format : AAC
Format/Info : Advanced Audio Codec
Format profile : LC
Codec ID : 40
Duration : 1h 46mn
Bit rate mode : Constant
Bit rate : 224 Kbps
Channel(s) : 2 channels
Channel(s)_Original : 6 channels
Channel positions : Front: L C R, Side: L R, LFE
Sampling rate : 48.0 KHz
Compression mode : Lossy
Stream size : 170 MiB (8%)
Language : English
Encoded date : UTC 1904-01-01 00:00:00
Tagged date : UTC 1904-01-01 00:00:00

Menu #1
ID : 3
Codec ID : text
Duration : 1h 46mn
Language : English
Encoded date : UTC 1904-01-01 00:00:00
Tagged date : UTC 1904-01-01 00:00:00
Bit rate mode : CBR
00:00:00.000 : 00:00:00.000
00:07:56.352 : 00:07:56.309
00:15:20.254 : 00:15:20.211
00:23:49.846 : 00:23:49.803
00:31:15.708 : 00:31:15.665
00:39:19.317 : 00:39:19.274
00:46:58.317 : 00:46:58.274
00:54:12.000 : 00:54:11.957
01:00:55.528 : 01:00:55.485
01:09:43.347 : 01:09:43.304
01:16:24.414 : 01:16:24.371
01:23:07.776 : 01:23:07.733
01:32:20.661 : 01:32:20.618
01:41:19.366 : 01:41:19.323

Menu #2
00:00:00.043 : 00:00:00.000
00:07:56.352 : 00:07:56.309
00:15:20.254 : 00:15:20.211
00:23:49.846 : 00:23:49.803
00:31:15.708 : 00:31:15.665
00:39:19.317 : 00:39:19.274
00:46:58.317 : 00:46:58.274
00:54:12.000 : 00:54:11.957
01:00:55.528 : 01:00:55.485
01:09:43.347 : 01:09:43.304
01:16:24.414 : 01:16:24.371
01:23:07.776 : 01:23:07.733
01:32:20.661 : 01:32:20.618
01:41:19.366 : 01:41:19.323



[/mediainfo]

Related torrents

Torrent NameAddedSizeSeedLeechHealth
1 Year+ - in Movies2.02 GB04
1 Year+ - in Other2.03 GB00
1 Year+ - in Other1.28 GB00
1 Year+ - in Other1.31 GB3750
Verified torrent
1 Year+ - in TV shows7.67 GB3217

Note :

Feel free to post any comments about this torrent, including links to Subtitle, samples, screenshots, or any other relevant information. Watch Project Almanac 2014 1080p BluRay H264 AAC-RARBG Free Movies Online, Like 123Movies, Fmovies, Putlockers, Popcorntime, Netflix or Direct Download Project Almanac 2014 1080p BluRay H264 AAC-RARBG via Magnet Link.

Comments (0 Comments)




Please login or create a FREE account to post comments

Latest Searches