Shark Lake 2015 1080p BluRay H264 AAC-RARBG


    Seeders : 87      Leechers : 66

Torrent Hash :FCACFEC8C3E403D204A3774A50B09B9E85238574
Torrent Added :1 Year+ in Other - Other
Torrent Size :1.77 GB
VPN :Download torrents Safely and Anonymously with Cheap VPN : Get VPN NOW


Shark Lake 2015 1080p BluRay H264 AAC-RARBG
Fast And Direct Download Safely And Anonymously!







Cheap VPN

Note :

Please Update (Trackers Info) Before Start "Shark Lake 2015 1080p BluRay H264 AAC-RARBG" Torrent Downloading to See Updated Seeders And Leechers for Batter Torrent Download Speed.

Trackers List

Tracker NameLast CheckStatusSeedersLeechers
udp://tracker.trackerfix.com:80/announce1 Year+success8766
http://tracker.trackerfix.com/announce1 Year+success8766
udp://9.rarbg.to:2710/announce1 Year+success7660
udp://9.rarbg.me:2710/announce1 Year+success7660
udp://tracker.pomf.se:80/announce1 Year+success6345
udp://tracker.coppersurfer.tk:801 Year+success6249
udp://tracker.coppersurfer.tk:6969/announce1 Year+success6249
udp://tracker.opentrackr.org:1337/announce1 Year+success5343
udp://p4p.arenabg.com:13371 Year+success33
http://tracker.tfile.me/announce1 Year+success33
udp://tracker.leechers-paradise.org:6969/announce1 Year+success24
http://bigfoot1942.sektori.org:6969/announce1 Year+success00
http://explodie.org:6969/announce1 Year+failed00
udp://tracker.openbittorrent.com:80/announce1 Year+failed00
udp://glotorrents.pw:6969/announce1 Year+failed00
udp://tracker4.piratux.com:6969/announce1 Year+failed00
udp://tracker.publicbt.com:80/announce1 Year+failed00
udp://torrent.gresille.org:80/announce1 Year+success00
udp://open.demonii.com:1337/announce1 Year+failed00
http://tracker.publicbt.com/announce1 Year+failed00



Torrent File Content (4 files)


Shark.Lake.2015.1080p.BluRay.H264.AAC-RARBG
     RARBG.COM.mp4 -
992.93 KB

     RARBG.COM.txt -
34 bytes

     Shark.Lake.2015.1080p.BluRay.H264.AAC-RARBG.mp4 -
1.77 GB

     Shark.Lake.2015.1080p.BluRay.H264.AAC-RARBG.nfo -
3.8 KB



Description



 							
https://rarbg.to
Shark.Lake.2015.1080p.BluRay.H264.AAC-RARBG

image
Screens :

image

image

image

image

image
Mediainfo :

Video
ID : 1
Format : AVC
Format/Info : Advanced Video Codec
Format profile : [email protected]
Format settings, CABAC : Yes
Format settings, ReFrames : 4 frames
Codec ID : avc1
Codec ID/Info : Advanced Video Coding
Duration : 1h 32mn
Bit rate : 2 500 Kbps
Width : 1 920 pixels
Height : 1 080 pixels
Display aspect ratio : 16:9
Frame rate mode : Constant
Frame rate : 23.976 fps
Color space : YUV
Chroma subsampling : 4:2:0
Bit depth : 8 bits
Scan type : Progressive
Bits/(Pixel*Frame) : 0.050
Stream size : 1.62 GiB (92%)
Writing library : x264 core 148 r2597M e86f3a1
Encoding settings : cabac=1 / ref=4 / deblock=1:-1:-1 / analyse=0x3:0x113 / me=umh / subme=9 / psy=1 / psy_rd=1.00:0.15 / mixed_ref=1 / me_range=24 / chroma_me=1 / trellis=2 / 8x8dct=1 / cqm=0 / deadzone=21,11 / fast_pskip=1 / chroma_qp_offset=-3 / threads=32 / lookahead_threads=4 / sliced_threads=0 / nr=0 / decimate=1 / interlaced=0 / bluray_compat=0 / constrained_intra=0 / bframes=3 / b_pyramid=2 / b_adapt=2 / b_bias=0 / direct=3 / weightb=1 / open_gop=0 / weightp=2 / keyint=250 / keyint_min=25 / scenecut=40 / intra_refresh=0 / rc_lookahead=50 / rc=2pass / mbtree=1 / bitrate=2500 / ratetol=1.0 / qcomp=0.60 / qpmin=0 / qpmax=69 / qpstep=4 / cplxblur=20.0 / qblur=0.5 / vbv_maxrate=31250 / vbv_bufsize=31250 / nal_hrd=none / filler=0 / ip_ratio=1.40 / aq=3:1.00
Encoded date : UTC 2015-12-05 13:44:48
Tagged date : UTC 2015-12-05 13:44:48

Audio
ID : 2
Format : AAC
Format/Info : Advanced Audio Codec
Format profile : LC
Codec ID : 40
Duration : 1h 32mn
Bit rate mode : Constant
Bit rate : 224 Kbps
Channel(s) : 2 channels
Channel(s)_Original : 6 channels
Channel positions : Front: L C R, Side: L R, LFE
Sampling rate : 48.0 KHz
Compression mode : Lossy
Stream size : 148 MiB (8%)
Language : English
Encoded date : UTC 2015-12-05 13:44:48
Tagged date : UTC 2015-12-05 13:44:48




Related torrents

Torrent NameAddedSizeSeedLeechHealth
1 Year+ - in Other1.77 GB00
1 Year+ - in Other1.12 GB714
1 Year+ - in Other9.3 GB1440
1 Year+ - in Movies1.36 GB00
1 Year+ - in Movies1.7 GB2613

Note :

Feel free to post any comments about this torrent, including links to Subtitle, samples, screenshots, or any other relevant information. Watch Shark Lake 2015 1080p BluRay H264 AAC-RARBG Full Movie Online Free, Like 123Movies, FMovies, Putlocker, Netflix or Direct Download Torrent Shark Lake 2015 1080p BluRay H264 AAC-RARBG via Magnet Download Link.

Comments (0 Comments)




Please login or create a FREE account to post comments

People Searches