2;22-AC3-5,1-DVDRip[Eng]2008


    Seeders : 0      Leechers : 0

Hash :6F7F28A53D3395F4080CA4149F16DA32CC39590C
Added :1 Year+ in Movies
Size :1.39 GB
Stream :Watch FREE Full Movies @ Movie4u


2;22-AC3-5,1-DVDRip[Eng]2008
Download your torrents safely! And Anonymously!








Please Turn on your VPN before Downloading Torrents.
Your IP Address is 34.226.234.20.   And Location United States, Ashburn
Your Internet Service Provider and Government can track your Online Activity!  Protect yourself from expensive lawsuits and fines NOW!
We Strongly Recommend Using Very Cheap VPN for P2P to Anonymize your Torrenting.

Note :

Please Update (Trackers Info) Before Start Torrents Downloading to See Updated Seeders And Leechers for Batter Download Speed.

Trackers List

Tracker NameLast CheckStatusSeedersLeechers



Torrent File Content (3 files)


2;22-AC3-5,1-DVDRip[Eng]2008
     2;22-AC3-5,1-DVDRip[Eng]2008.avi -
1.39 GB

     2;22-AC3-5,1-DVDRip[Eng]2008.txt -
2.51 KB

     Torrent downloaded from Demonoid.com.txt -
47 bytes



Description



http://www.imdb.com/title/tt1261041/

http://www.222themovie.com/

User Rating:8.0/10 - 36 votes

Crime

Director:Phillip Guzman

Cast:Val Kilmer/Mick Rossi/Robert Miano/Aaron Gallagher, and others.

Plot:
The plan was easy; the job was not. On a snowy night a tight crew of four criminals plan to pull off a routine heist.
When things go horribly wrong, friendship, loyalty and trust are pushed to the limit..

Info:

General
Complete name : 2;22-AC3-5,1-DVDRip[Eng]2008.avi
Format : AVI
Format/Info : Audio Video Interleave
File size : 1.39 GiB
Duration : 1h 44mn
Overall bit rate : 1 901 Kbps
Writing application : VirtualDubMod 1.5.4.1 (build 2178/release)
Writing library : VirtualDubMod build 2178/release

Video
Format : MPEG-4 Visual
Format profile : Streaming [email protected]
Format settings, BVOP : Yes
Format settings, QPel : No
Format settings, GMC : No warppoints
Format settings, Matrix : Default
Muxing mode : Packed bitstream
Codec ID : XVID
Codec ID/Hint : XviD
Duration : 1h 44mn
Bit rate : 1 510 Kbps
Width : 704 pixels
Height : 400 pixels
Display aspect ratio : 16/9
Frame rate : 25.000 fps
Resolution : 24 bits
Colorimetry : 4:2:0
Scan type : Progressive
Bits/(Pixel*Frame) : 0.214
Stream size : 1.10 GiB (79%)
Writing library : XviD 50

Audio
Format : AC-3
Format/Info : Audio Coding 3
Codec ID : 2000
Duration : 1h 44mn
Bit rate mode : Constant
Bit rate : 384 Kbps
Channel(s) : 6 channels
Channel positions : Front: L C R, Surround: L R, LFE
Sampling rate : 48.0 KHz
Stream size : 287 MiB (20%)
Alignment : Split accross interleaves
Interleave, duration : 80 ms (2.00 video frames)
Interleave, preload duration : 500 ms
Language : English

Enjoy...

Related torrents

Torrent NameAddedSizeSeedLeechHealth
1 Year+ - in Movies1.39 GB00
1 Year+ - in Movies1.46 GB279
1 Year+ - in Movies1.39 GB00
1 Year+ - in Movies1.39 GB00
1 Year+ - in Movies1.39 GB23

Note :

Feel free to post any comments about this torrent, including links to Subtitle, samples, screenshots, or any other relevant information. Watch 2;22-AC3-5,1-DVDRip[Eng]2008 Free Movies Online, Like 123Movies, Fmovies, Putlockers, Popcorntime, Netflix or Direct Download 2;22-AC3-5,1-DVDRip[Eng]2008 via Magnet Link.

Comments (0 Comments)




Please login or create a FREE account to post comments

Latest Searches