Verified torrent

8MM Bullet (2018) 720p Kannada (DD 5.1) HDRip x264 AC3 by india4movies


    Seeders : 4      Leechers : 1


Please Turn on your VPN before Downloading Torrents.
Your IP Address is 3.227.235.71.   And Location United States,
Your Internet Service Provider and Government can track your Online Activity!  Protect yourself from expensive lawsuits and fines NOW!
We Strongly Recommend Using Very Cheap VPN for P2P to Anonymize your Torrenting.

Note :

Please Update (Trackers Info) Before Start Torrents Downloading to See Updated Seeders And Leechers for Batter Download Speed.

Trackers List

Tracker NameLast CheckStatusSeedersLeechers
udp://tracker.internetwarriors.net:1337/announce4 months agosuccess31
udp://tracker.tiny-vps.com:6969/announce4 months agosuccess31
udp://bt.xxx-tracker.com:2710/announce4 months agosuccess31
udp://9.rarbg.me:2710/announce4 months agosuccess21
udp://9.rarbg.to:2720/announce4 months agosuccess21
udp://9.rarbg.to:2770/announce4 months agosuccess21
udp://9.rarbg.to:2730/announce4 months agosuccess21
udp://9.rarbg.to:2740/announce4 months agosuccess21
udp://9.rarbg.me:2770/announce4 months agosuccess21
udp://9.rarbg.me:2730/announce4 months agosuccess21
udp://9.rarbg.me:2740/announce4 months agosuccess21
udp://open.stealth.si:80/announce4 months agosuccess21
udp://9.rarbg.to:2710/announce4 months agosuccess21
udp://ipv4.tracker.harry.lu:80/announce4 months agosuccess20
udp://tracker.vanitycore.co:6969/announce4 months agofailed00
udp://tracker.zer0day.to:1337/announce4 months agofailed00
udp://shadowshq.yi.org:6969/announce4 months agofailed00
udp://tracker.coppersurfer.tk:6969/announce4 months agofailed00
udp://tracker.leechers-paradise.org:6969/announce5 months agosuccess00
udp://tracker.pirateparty.gr:6969/announce4 months agofailed00
udp://exodus.desync.com:6969/announce4 months agosuccess00
udp://public.popcorn-tracker.org:6969/announce4 months agofailed00
udp://tracker.cypherpunks.ru:6969/announce4 months agofailed00
udp://inferno.demonoid.pw:3418/announce4 months agofailed00
udp://tracker.cyberia.is:6969/announce4 months agosuccess00
udp://asnet.pw:2710/announce4 months agofailed00
udp://tracker.acg.gg:2710/announce4 months agofailed00
udp://tracker.port443.xyz:6969/announce4 months agosuccess00
http://bt.acg.gg:1578/announce4 months agofailed00
udp://tracker.uw0.xyz:6969/announce5 months agosuccess00
udp://tracker.trackerfix.com:80/announce4 months agofailed00
udp://explodie.org:6969/announce5 months agosuccess00
udp://eddie4.nl:6969/announce4 months agofailed00
udp://thetracker.org:80/announce4 months agosuccess00
http://tracker3.itzmx.com:8080/announce4 months agofailed00
udp://tracker.torrent.eu.org:4514 months agosuccess00
udp://tracker.mg64.net:6969/announce4 months agofailed00
udp://tracker.torrent.eu.org:451/announce4 months agosuccess00
http://share.camoe.cn:8080/announce4 months agofailed00
udp://exodus.desync.com:6969/5 months agosuccess00
udp://tracker.justseed.it:1337/announce4 months agofailed00
udp://tracker.opentrackr.org:1337/announce4 months agosuccess00
udp://tracker.coppersurfer.tk:80/announce4 months agofailed00
udp://p4p.arenabg.ch:1337/announce4 months agofailed00
udp://glotorrents.pw:6969/announce4 months agofailed00
udp://ipv6.tracker.harry.lu:80/announce4 months agosuccess00



Torrent File Content (1 file)


     8MM Bullet (2018) 720p Kannada (DD 5.1) HDRip x264 AC3 by india4movies.mkv -
1.3 GB



Description



https://extraimage.net/images/2019/03/16/86e0e8857d99fd15ca41838bd19b9ae1.jpg


General
Complete name : 8MM Bullet (2018) 720p Kannada (DD 5.1) HDRip x264 AC3 by india4movies.mkv
Format : Matroska
Format version : Version 4
File size : 1.30 GiB
Duration : 2 h 13 min
Overall bit rate : 1 394 kb/s
Movie name : www.india4movies.cc
Encoded date : UTC 2019-03-15 11:47:10
Writing application : mkvmerge v6.9.1 ('Blue Panther') 32bit built on Apr 18 2014 18:15:44
Writing library : libebml v1.3.0 + libmatroska v1.4.1
Attachments : india4movies-2.png

Video
ID : 1
Format : AVC
Format/Info : Advanced Video Codec
Format profile : [email protected]
Format settings : CABAC / 4 Ref Frames
Format settings, CABAC : Yes
Format settings, ReFrames : 4 frames
Codec ID : V_MPEG4/ISO/AVC
Duration : 2 h 13 min
Bit rate : 1 272 kb/s
Width : 1 280 pixels
Height : 544 pixels
Display aspect ratio : 2.35:1
Frame rate mode : Constant
Frame rate : 25.000 FPS
Color space : YUV
Chroma subsampling : 4:2:0
Bit depth : 8 bits
Scan type : Progressive
Bits/(Pixel*Frame) : 0.073
Stream size : 1.15 GiB (89%)
Writing library : x264 core 157 r2935 545de2f
Language : Kannada
Default : Yes
Forced : No

Audio
ID : 2
Format : AC-3
Format/Info : Audio Coding 3
Commercial name : Dolby Digital
Codec ID : A_AC3
Duration : 2 h 13 min
Bit rate mode : Constant
Bit rate : 128 kb/s
Channel(s) : 6 channels
Channel layout : L R C LFE Ls Rs
Sampling rate : 44.1 kHz
Frame rate : 28.711 FPS (1536 SPF)
Bit depth : 16 bits
Compression mode : Lossy
Stream size : 122 MiB (9%)
Language : Kannada
Service kind : Complete Main
Default : Yes
Forced : No

Screen Shoots
https://extraimage.net/images/2019/03/16/76f20d9c7a69292f5fc73a615f6a92e0.jpg

Related torrents

Torrent NameAddedSizeSeedLeechHealth
Verified torrent
7 months ago - in Movies1.39 GB20
Verified torrent
7 months ago - in Movies1.4 GB30
Verified torrent
7 months ago - in Movies1.46 GB14
Verified torrent
8 months ago - in Movies1.39 GB00
Verified torrent
9 months ago - in Movies1.29 GB94

Note :

Feel free to post any comments about this torrent, including links to Subtitle, samples, screenshots, or any other relevant information. Watch 8MM Bullet (2018) 720p Kannada (DD 5.1) HDRip x264 AC3 by india4movies Free Movies Online, Like 123Movies, Fmovies, Putlockers, Popcorntime, Netflix or Direct Download 8MM Bullet (2018) 720p Kannada (DD 5.1) HDRip x264 AC3 by india4movies via Magnet Link.

Comments (0 Comments)




Please login or create a FREE account to post comments

Latest Searches