Verified torrent 8MM Bullet (2018) Kannada HDRip x264 Mp3 by india4movies


    Seeders : 0      Leechers : 0

Hash :9DF36ACAFB2CAE65030A91A89551F01A8A911A2C
Added :Last Month by India4movieVerified torrent uploader in Movies
Size :704.29 MB
Stream :Watch Movie Online @ Movie4u
Share :


8MM Bullet (2018) Kannada HDRip x264 Mp3 by india4movies
Use a VPN to make yourself hidden while Downloading torrents.







Warning! Please Download Torrents with a VPN.
Your IP Address is 3.90.12.112.   And Location is United States,
Your Internet Service Provider and Government can track your Online Activity!  Protect yourself from expensive lawsuits and fines NOW!
We Strongly Recommend Using Best Cheapest VPN to Anonymize your Torrenting.

Note :

Please Update (Trackers Info) Before Start Torrents Downloading to See Updated Seeders And Leechers for Batter Download Speed.

Trackers List

Tracker NameLast CheckStatusSeedersLeechers
udp://ipv4.tracker.harry.lu:80/announceLast Monthsuccess00
udp://tracker.leechers-paradise.org:6969/announceLast Monthsuccess00
udp://tracker.coppersurfer.tk:6969/announceLast Monthsuccess00
udp://explodie.org:6969/announceLast Monthsuccess00
udp://exodus.desync.com:6969/Last Monthsuccess00
udp://bt.xxx-tracker.com:2710/announceLast Monthsuccess00
udp://9.rarbg.to:2710/announceLast Monthsuccess00
udp://tracker.tiny-vps.com:6969/announceLast Monthsuccess00
udp://tracker.internetwarriors.net:1337/announceLast Monthsuccess00
udp://open.stealth.si:80/announceLast Monthsuccess00
udp://tracker.torrent.eu.org:451/announceLast Monthsuccess00
udp://tracker.cyberia.is:6969/announceLast Monthsuccess00
udp://tracker.uw0.xyz:6969/announceLast Monthsuccess00



Torrent File Content (1 file)


     8MM Bullet (2018) Kannada HDRip x264 Mp3 by india4movies.mkv -
704.29 MB



Description



https://extraimage.net/images/2019/03/16/86e0e8857d99fd15ca41838bd19b9ae1.jpg


General
Complete name : 8MM Bullet (2018) Kannada HDRip x264 Mp3 by india4movies.mkv
Format : Matroska
Format version : Version 4
File size : 704 MiB
Duration : 2 h 13 min
Overall bit rate : 737 kb/s
Movie name : www.india4movies.cc
Encoded date : UTC 2019-03-15 11:50:05
Writing application : mkvmerge v6.9.1 ('Blue Panther') 32bit built on Apr 18 2014 18:15:44
Writing library : libebml v1.3.0 + libmatroska v1.4.1

Video
ID : 1
Format : AVC
Format/Info : Advanced Video Codec
Format profile : [email protected]
Format settings : CABAC / 4 Ref Frames
Format settings, CABAC : Yes
Format settings, ReFrames : 4 frames
Codec ID : V_MPEG4/ISO/AVC
Duration : 2 h 13 min
Bit rate : 646 kb/s
Width : 720 pixels
Height : 306 pixels
Display aspect ratio : 2.35:1
Frame rate mode : Constant
Frame rate : 25.000 FPS
Color space : YUV
Chroma subsampling : 4:2:0
Bit depth : 8 bits
Scan type : Progressive
Bits/(Pixel*Frame) : 0.117
Stream size : 599 MiB (85%)
Writing library : x264 core 155 r2901 7d0ff22
Default : Yes
Forced : No
Color range : Limited
Color primaries : BT.709
Transfer characteristics : BT.709
Matrix coefficients : BT.709

Audio
ID : 2
Format : MPEG Audio
Format version : Version 1
Format profile : Layer 3
Format settings : Joint stereo / MS Stereo
Codec ID : A_MPEG/L3
Codec ID/Hint : MP3
Duration : 2 h 13 min
Bit rate mode : Constant
Bit rate : 96.0 kb/s
Channel(s) : 2 channels
Sampling rate : 48.0 kHz
Compression mode : Lossy
Stream size : 91.7 MiB (13%)
Writing library : LAME3.100
Language : Kannada
Default : Yes
Forced : No

Screen Shoots
https://extraimage.net/images/2019/03/16/76f20d9c7a69292f5fc73a615f6a92e0.jpg

Related torrents

Torrent NameAddedSizeSeedLeechHealth
Last Month - in Movies721.59 MB101
Last Month - in Movies267.08 MB00
Last Month - in Movies398.25 MB935
Last Month - in Movies701.6 MB334
2 months ago - in Movies698.81 MB00
3 months ago - in Other697.15 MB10

Note :

Feel free to post any comments about this torrent, including links to Subtitle, samples, screenshots, or any other relevant information. Please Dont Download anything from Comments, And Links to Streaming Sites like Watch Online 8MM Bullet (2018) Kannada HDRip x264 Mp3 by india4movies Full Movie, Fmovies, 123Movies, Putlocker, Netflix, etc.

Comments (0 Comments)




Please login or create a FREE account to post comments

Latest Searches