Accidental Kidnapper 2010 JAP DVDRip x264 AC3-ADiOS


    Seeders : 1      Leechers : 6

Hash :E2483CB9341F36EA707D06383ED53800F8A18E29
Added :1 Year+ in Movies
Size :1.47 GB
Stream :Watch FREE Full Movies @ Movie4u


Accidental Kidnapper 2010 JAP DVDRip x264 AC3-ADiOS
Fast And Direct Download Safely! And Anonymously!









Note :

Please Update (Trackers Info) Before Start Torrents Downloading to See Updated Seeders And Leechers for Batter Download Speed.

Trackers List

Tracker NameLast CheckStatusSeedersLeechers
http://announce.torrentsmd.com:6969/announce1 Year+success16
udp://tracker.coppersurfer.tk:801 Year+success15
udp://9.rarbg.me:2710/announce1 Year+success16
udp://9.rarbg.com:2710/announce1 Year+success16
http://bigfoot1942.sektori.org:6969/announce1 Year+success01
http://tracker.thepiratebay.org/announce1 Year+failed00
http://mgtracker.org:2710/announce1 Year+failed00
http://i.bandito.org/announce1 Year+success00
udp://tracker.zond.org:80/announce1 Year+failed00
udp://tracker.ilibr.org:6969/announce1 Year+failed00
http://tracker.best-torrents.net:6969/announce1 Year+failed00
http://torrent.gresille.org/announce1 Year+success00
udp://tracker.seedceo.com:2710/announce1 Year+failed00
http://torrent-tracker.ru/announce.php1 Year+success00
udp://tracker.btzoo.eu:80/announce1 Year+failed00
http://tracker.winglai.com/announce1 Year+success00
http://tracker.windsormetalbattery.com/announce1 Year+success00
http://tracker.istole.it/announce1 Year+failed00
http://tracker.publicbt.com/announce1 Year+failed00
http://exodus.desync.com:6969/announce1 Year+success00
http://tracker.nwps.ws:6969/announce1 Year+success01
udp://10.rarbg.me:80/announce1 Year+failed00
http://fr33dom.h33t.com:3310/announce1 Year+failed00
http://tracker.trackerfix.com/announce1 Year+success00
udp://ipv4.tracker.harry.lu:80/announce1 Year+failed00
udp://tracker.istole.it:80/announce1 Year+failed00
udp://tracker.openbittorrent.com:80/announce1 Year+failed00
udp://tracker.publicbt.com:80/announce1 Year+failed00
udp://open.demonii.com:1337/announce1 Year+success00
udp://tracker.ccc.de:80/announce1 Year+failed00
udp://tracker.token.ro:80/announce1 Year+failed00



Torrent File Content (9 files)


Accidental.Kidnapper.2010.JAP.DVDRip.x264.AC3-ADiOS
     Accidental.Kidnapper.2010.JAP.DVDRip.x264.AC3-ADiOS.mkv -
1.47 GB

     Accidental.Kidnapper.jpg -
187.35 KB

     Accidental.Kidnapper.2010.JAP.DVDRip.x264.AC3-ADiOS.mkv_20150123_181530.224.jpg -
131.58 KB

     Accidental.Kidnapper.2010.JAP.DVDRip.x264.AC3-ADiOS.mkv_20150123_181518.478.jpg -
113.97 KB

     Accidental.Kidnapper.2010.JAP.DVDRip.x264.AC3-ADiOS.mkv_20150123_181506.029.jpg -
103.64 KB

     Accidental.Kidnapper.2010.JAP.DVDRip.x264.AC3-ADiOS.mkv_20150123_181404.673.jpg -
56.61 KB

     Accidental.Kidnapper.2010.JAP.DVDRip.x264.AC3-ADiOS.mkv_20150123_181629.692.jpg -
55.6 KB

     Accidental.Kidnapper.2010.JAP.DVDRip.x264.AC3-ADiOS.mkv_20150123_181647.757.jpg -
53 KB

     Accidental.Kidnapper.2010.JAP.DVDRip.x264.AC3-ADiOS.mkv_20150123_181658.037.jpg -
50.8 KB



Description



 							Accidental.Kidnapper.2010.JAP.DVDRip.x264.AC3-ADiOS.mkv
General
Unique ID : 226252186456283109698172201224534689413 (0xAA369609DBB218338102C888DE0F0685)
Complete name : Accidental.Kidnapper.2010.JAP.DVDRip.x264.AC3-ADiOS.mkv
Format : Matroska
Format version : Version 2
File size : 1.47 GiB
Duration : 1h 51mn
Overall bit rate : 1 890 Kbps
Encoded date : UTC 2015-01-22 21:48:39
Writing application : mkvmerge v5.8.0 ('No Sleep / Pillow') built on Sep 2 2012 15:37:04
Video #1
ID : 1
Format : AVC
Format/Info : Advanced Video Codec
Format profile : [email protected]
Format settings, CABAC : No
Format settings, ReFrames : 1 frame
Muxing mode : Header stripping
Codec ID : V_MPEG4/ISO/AVC
Duration : 1h 51mn
Bit rate : 1 700 Kbps
Width : 720 pixels
Height : 400 pixels
Display aspect ratio : 16:9
Frame rate mode : Constant
Frame rate : 23.976 fps
Color space : YUV
Chroma subsampling : 4:2:0
Bit depth : 8 bits
Scan type : Progressive
Bits/(Pixel*Frame) : 0.246
Stream size : 1.29 GiB (88%)
Writing library : x264 core 125
Encoding settings : cabac=0 / ref=1 / deblock=1:0:0 / analyse=0x1:0x1 / me=dia / subme=1 / psy=1 / psy_rd=1.00:0.00 / mixed_ref=0 / me_range=16 / chroma_me=1 / trellis=0 / 8x8dct=0 / cqm=0 / deadzone=21,11 / fast_pskip=1 / chroma_qp_offset=0 / threads=3 / lookahead_threads=1 / sliced_threads=0 / nr=0 / decimate=1 / interlaced=0 / bluray_compat=0 / constrained_intra=0 / bframes=0 / weightp=0 / keyint=250 / keyint_min=23 / scenecut=40 / intra_refresh=0 / rc=abr / mbtree=0 / bitrate=1700 / ratetol=1.0 / qcomp=0.60 / qpmin=0 / qpmax=69 / qpstep=4 / ip_ratio=1.40 / aq=1:1.00
Default : Yes
Forced : No
Audio #2
ID : 2
Format : AC-3
Format/Info : Audio Coding 3
Mode extension : CM (complete main)
Format settings, Endianness : Big
Muxing mode : Header stripping
Codec ID : A_AC3
Duration : 1h 51mn
Bit rate mode : Constant
Bit rate : 192 Kbps
Channel(s) : 2 channels
Channel positions : Front: L R
Sampling rate : 48.0 KHz
Bit depth : 16 bits
Compression mode : Lossy
Delay relative to video : 26ms
Stream size : 153 MiB (10%)
Default : Yes
Forced : No

Related torrents

Torrent NameAddedSizeSeedLeechHealth
1 Year+ - in Movies1.47 GB12
1 Year+ - in Other1.45 GB10
1 Year+ - in Other1.47 GB11
1 Year+ - in Other1.4 GB126
1 Year+ - in Other1.46 GB00

Note :

Feel free to post any comments about this torrent, including links to Subtitle, samples, screenshots, or any other relevant information. Watch Accidental Kidnapper 2010 JAP DVDRip x264 AC3-ADiOS Free Full Movies Online, Like 123Movies, Fmovies, Putlocker, Netflix or Direct Download Torrent Accidental Kidnapper 2010 JAP DVDRip x264 AC3-ADiOS via Magnet Link.

Comments (0 Comments)




Please login or create a FREE account to post comments

People Searching