Verified torrent

Amazing Stories Season 1 [1985-86] (Complete) 720p WEB-DL MP4 AVC AAC AnonCrypt


    Seeders : 9      Leechers : 4


Please Turn on your VPN before Downloading Torrents.
Your IP Address is 34.239.158.107.   And Location United States, Ashburn
Your Internet Service Provider and Government can track your Online Activity!  Protect yourself from expensive lawsuits and fines NOW!
We Strongly Recommend Using Very Cheap VPN for P2P to Anonymize your Torrenting.

Note :

Please Update (Trackers Info) Before Start Torrents Downloading to See Updated Seeders And Leechers for Batter Download Speed.

Trackers List

Tracker NameLast CheckStatusSeedersLeechers
udp://tracker.coppersurfer.tk:6969/announce3 months agosuccess94
udp://tracker.leechers-paradise.org:6969/announce3 months agosuccess42
udp://tracker.opentrackr.org:1337/announce3 months agosuccess22
udp://tracker.internetwarriors.net:1337/announce3 months agosuccess22
udp://bt.xxx-tracker.com:2710/announce3 months agosuccess22
udp://thetracker.org:80/announce3 months agosuccess12
udp://tracker.tiny-vps.com:6969/announce3 months agosuccess12
http://retracker.lanta-net.ru:2710/announce1 Year+success10
http://tracker.vanitycore.co:6969/announce1 Year+success10
udp://retracker.lanta-net.ru:2710/announce3 months agosuccess02
udp://9.rarbg.to:2730/announce3 months agosuccess02
udp://9.rarbg.to:2770/announce3 months agosuccess02
udp://tracker.pirateparty.gr:6969/announce3 months agofailed00
http://tracker.pirateparty.gr:6969/announce1 Year+failed00
udp://9.rarbg.to:2790/announce3 months agosuccess02
udp://9.rarbg.to:2740/announce3 months agosuccess02
udp://tracker.vanitycore.co:6969/announce3 months agofailed00
udp://tracker.zer0day.to:1337/announce3 months agofailed00
udp://9.rarbg.me:2770/announce3 months agosuccess02
udp://9.rarbg.to:2720/announce3 months agosuccess02
udp://public.popcorn-tracker.org:6969/announce3 months agofailed00
udp://tracker.mg64.net:6969/announce3 months agofailed00
http://tracker2.itzmx.com:8080/announce3 months agofailed00
udp://tracker.cypherpunks.ru:6969/announce3 months agofailed00
udp://inferno.demonoid.pw:3418/announce3 months agofailed00
udp://tracker.cyberia.is:6969/announce3 months agosuccess00
udp://asnet.pw:2710/announce3 months agofailed00
http://t.nyaatracker.com:80/announce3 months agofailed00
udp://tracker.acg.gg:2710/announce3 months agofailed00
udp://tracker.port443.xyz:6969/announce3 months agofailed00
http://bt.acg.gg:1578/announce3 months agofailed00
udp://p4p.arenabg.ch:1337/announce3 months agofailed00
http://tracker.publicbt.com/announce1 Year+failed00
udp://ipv4.tracker.harry.lu:80/announce3 months agosuccess01
udp://9.rarbg.me:2710/announce3 months agosuccess02
udp://exodus.desync.com:6969/announce3 months agosuccess00
udp://shadowshq.yi.org:6969/announce3 months agofailed00
udp://eddie4.nl:6969/announce3 months agofailed00
http://share.camoe.cn:8080/announce3 months agofailed00
udp://tracker.justseed.it:1337/announce3 months agosuccess00
udp://tracker.coppersurfer.tk:80/announce3 months agofailed00
udp://ipv6.tracker.harry.lu:80/announce3 months agosuccess00
udp://tracker.trackerfix.com:80/announce3 months agofailed00
udp://glotorrents.pw:6969/announce3 months agofailed00
udp://9.rarbg.me:2730/announce3 months agosuccess02
udp://9.rarbg.to:2710/announce3 months agosuccess02
http://tracker.tiny-vps.com:6969/announce1 Year+failed00
udp://open.stealth.si:80/announce3 months agofailed00
udp://tracker.torrent.eu.org:451/announce3 months agosuccess00
http://tracker.city9x.com:2710/announce3 months agofailed00
http://zer0day.ch:1337/announce1 Year+failed00
udp://mgtracker.org:6969/announce3 months agofailed00
http://tracker.openbittorrent.com/announce1 Year+failed00
udp://tracker.torrent.eu.org:4513 months agosuccess00
http://tracker3.itzmx.com:8080/announce3 months agofailed00
udp://9.rarbg.me:2740/announce3 months agosuccess02



Torrent File Content (26 files)


Amazing Stories Season 1 [1985-86] (Complete) 720p WEB-DL MP4 AVC AAC AnonCrypt
     Info (Open With Text Editor).nfo -
5.75 KB

     Intro Theme (Sample Video).mp4 -
10.01 MB

     S01E01 - Ghost Train.mp4 -
320 MB

     S01E02 - The Main Attraction.mp4 -
321.83 MB

     S01E03 - Alamo Jobe.mp4 -
320.37 MB

     S01E04 - Mummy Daddy.mp4 -
321.37 MB

     S01E05 - The Mission.mp4 -
600.81 MB

     S01E06- The Amazing Falsworth.mp4 -
321.86 MB

     S01E07 - Fine Tuning.mp4 -
320.69 MB

     S01E08 - Mr. Magic.mp4 -
322.29 MB

     S01E09 - Guilt Trip.mp4 -
320.61 MB

     S01E10 - Remote Control Man.mp4 -
320.45 MB

     S01E11 - Santa '85.mp4 -
320.59 MB

     S01E12 - Vanessa in the Garden.mp4 -
319.98 MB

     S01E13 - The Sitter.mp4 -
320.31 MB

     S01E14 - No Day at the Beach.mp4 -
316.46 MB

     S01E15 - One For the Road.mp4 -
320.86 MB

     S01E16 - Gather Ye Acorns.mp4 -
323.58 MB

     S01E17 - Boo!.mp4 -
321.22 MB

     S01E18 - Dorothy And Ben.mp4 -
321.26 MB

     S01E19 - Mirror, Mirror.mp4 -
317.45 MB

     S01E20 - Secret Cinema.mp4 -
323.18 MB

     S01E21 - Hell Toupee.mp4 -
322.12 MB

     S01E22 - The Doll.mp4 -
146.66 MB

     S01E23 - One For The Books.mp4 -
146.64 MB

     S01E24 - Grandpa's Ghost.mp4 -
319.1 MB



Description



http://i67.tinypic.com/24zxix3.jpg


Title: Amazing Stories Season 1 [1985-86] (Complete) 720p WEB-DL MP4 AVC AAC AnonCrypt
IMDB Link: https://www.imdb.com/title/tt0088478/
Language: English
Subtitles: English
File Type: MP4

Video
ID : 1
Format : AVC
Format/Info : Advanced Video Codec
Format profile : [email protected]
Format settings : 1 Ref Frames
Format settings, CABAC : No
Format settings, RefFrames : 1 frame
Codec ID : avc1
Codec ID/Info : Advanced Video Coding
Duration : 24 min 32 s
Bit rate : 1 696 kb/s
Width : 1 280 pixels
Height : 720 pixels
Display aspect ratio : 16:9
Frame rate mode : Variable
Frame rate : 29.970 (30000/1001) FPS
Minimum frame rate : 29.412 FPS
Maximum frame rate : 30.303 FPS
Color space : YUV
Chroma subsampling : 4:2:0
Bit depth : 8 bits
Scan type : Progressive
Bits/(Pixel*Frame) : 0.061
Stream size : 301 MiB (94%)
Writing library : x264 core 120

Audio
ID : 2
Format : AAC
Format/Info : Advanced Audio Codec
Format profile : LC
Codec ID : mp4a-40-2
Duration : 24 min 32 s
Bit rate mode : Constant
Bit rate : 96.0 kb/s
Channel(s) : 2 channels
Channel positions : Front: L R
Sampling rate : 44.1 kHz
Frame rate : 43.066 FPS (1024 SPF)
Compression mode : Lossy
Stream size : 16.8 MiB (5%)
Default : Yes
Alternate group : 1


Truly amazing, fantastical, funny, and odd, and sometimes scary, sad, and endearing stories are portrayed. Many famous actors, actresses, and directors made guest appearances.


Official AnonCrypt accounts:
https://1337x.to/user/AnonCrypt/
https://thepiratebay.org/user/AnonCrypt/
https://katcr.co/user/AnonCrypt/profile/
https://www.torrentfunk.com/user/anoncrypt.html
https://www.limetorrents.cc/profile/AnonCrypt/


https://s22.postimg.cc/v4cihekpt/il_570x_N_1185716396_5k1b_1_1.jpg


Related torrents

Torrent NameAddedSizeSeedLeechHealth
1 Year+ - in TV shows6.85 GB11
1 Year+ - in Movies425.42 MB50
1 Year+ - in Movies1.02 GB223
1 Year+ - in TV shows19.86 GB53
Verified torrent
1 Year+ - in Movies1.81 GB73

Note :

Feel free to post any comments about this torrent, including links to Subtitle, samples, screenshots, or any other relevant information. Watch Amazing Stories Season 1 [1985-86] (Complete) 720p WEB-DL MP4 AVC AAC AnonCrypt Free Movies Online, Like 123Movies, Fmovies, Putlockers, Popcorntime, Netflix or Direct Download Amazing Stories Season 1 [1985-86] (Complete) 720p WEB-DL MP4 AVC AAC AnonCrypt via Magnet Link.

Comments (0 Comments)




Please login or create a FREE account to post comments

Latest Searches