BARBIE AND THE 3 MUSKETEERS IN H 264 BY WINKER 2009


    Seeders : 0      Leechers : 0

Hash :D3887EDDFAB5459020ED2CC8E1281FB83867924B
Added :1 Year+ in Movies
Size :799.6 MB
Stream :Watch FREE Full Movies @ Movie4u


BARBIE AND THE 3 MUSKETEERS IN H 264 BY WINKER 2009
Download your torrents safely! And Anonymously!








Please Turn on your VPN before Downloading Torrents.
Your IP Address is 100.26.182.28.   And Location United States, Seattle
Your Internet Service Provider and Government can track your Online Activity!  Protect yourself from expensive lawsuits and fines NOW!
We Strongly Recommend Using Very Cheap VPN for P2P to Anonymize your Torrenting.

Note :

Please Update (Trackers Info) Before Start Torrents Downloading to See Updated Seeders And Leechers for Batter Download Speed.

Trackers List

Tracker NameLast CheckStatusSeedersLeechers



Torrent File Content (3 files)


BARBIE AND THE 3 MUSKETEERS IN H.264 BY WINKER 2009
     barb and the 3 musk.mp4 -
799.57 MB

     9732838x.jpg -
35.94 KB

     kidzcorner info.txt -
307 bytes



Description



Girl Power to the Rescue!

It's 'All For One and One For All' as Barbie and her friends co-star in 'Barbie And The Three Musketeers'! Join Barbie as Corinne, a young country girl who pursues her dream in Paris - to become a Musketeer!

There she meets three girls who secretly share the same dream. Can the girls dance at the masquerade ball, transform in Musketeers costumes and save the prince - all without breaking a heel?

Come along on an exciting adventure that shows dreams really do come true!

Format : MPEG-4
Format profile : Base Media / Version 2
Codec ID : mp42
File size : 800 MiB
Duration : 1h 21mn
Overall bit rate : 1 380 Kbps
Encoded date : UTC 2009-10-02 04:39:56
Tagged date : UTC 2009-10-02 08:38:39
Writing application : HandBrake 0.9.3 2008112300

Video
ID : 1
Format : AVC
Format/Info : Advanced Video Codec
Format profile : [email protected]
Format settings, CABAC : Yes
Format settings, ReFrames : 3 frames
Codec ID : avc1
Codec ID/Info : Advanced Video Coding
Duration : 1h 21mn
Bit rate mode : Variable
Bit rate : 1 216 Kbps
Width : 720 pixels
Height : 576 pixels
Display aspect ratio : 16:9
Frame rate mode : Variable
Frame rate : 25.000 fps
Minimum frame rate : 12.500 fps
Maximum frame rate : 48.980 fps
Standard : PAL
Resolution : 24 bits
Colorimetry : 4:2:0
Scan type : Progressive
Bits/(Pixel*Frame) : 0.117
Stream size : 705 MiB (88%)
Writing library : x264 core 65


Audio
ID : 2
Format : AAC
Format/Info : Advanced Audio Codec
Format version : Version 4
Format profile : LC
Format settings, SBR : No
Codec ID : 40
Duration : 1h 21mn
Bit rate mode : Variable
Bit rate : 160 Kbps
Maximum bit rate : 213 Kbps
Channel(s) : 2 channels
Channel positions : L R
Sampling rate : 48.0 KHz
Resolution : 16 bits
Stream size : 92.5 MiB (12%)
Language : English
Encoded date : UTC 2009-10-02 04:39:57
Tagged date : UTC 2009-10-02 08:38:38


Related torrents

Torrent NameAddedSizeSeedLeechHealth
1 Year+ - in Movies803.35 MB02
1 Year+ - in Movies1.13 GB4020
1 Year+ - in Movies901.82 MB03
1 Year+ - in Movies900.44 MB111
1 Year+ - in Movies1.19 GB00

Note :

Feel free to post any comments about this torrent, including links to Subtitle, samples, screenshots, or any other relevant information. Watch BARBIE AND THE 3 MUSKETEERS IN H 264 BY WINKER 2009 Free Movies Online, Like 123Movies, Fmovies, Putlockers, Popcorntime, Netflix or Direct Download BARBIE AND THE 3 MUSKETEERS IN H 264 BY WINKER 2009 via Magnet Link.

Comments (0 Comments)




Please login or create a FREE account to post comments

Latest Searches