Bionicle The Legend Reborn[2009]DvDRip[Eng]-Uvall 1


    Seeders : 3      Leechers : 2

Hash :63CFF047034494F505FF45044AE85B250DFFA026
Added :1 Year+ in Movies
Size :1.18 GB
Stream :Watch Full Movie @ Movie4u


Bionicle The Legend Reborn[2009]DvDRip[Eng]-Uvall 1
Use a VPN Service to Download torrents Anonymously.







Warning! Please Download Torrents with a VPN.
Your IP Address is 54.157.61.68.   And Location is United States, Ashburn
Your Internet Service Provider and Government can track your Online Activity!  Protect yourself from expensive lawsuits and fines NOW!
We Strongly Recommend Using Best Cheapest VPN to Anonymize your Torrenting.

Note :

Please Update (Trackers Info) Before Start Torrents Downloading to See Updated Seeders And Leechers for Batter Download Speed.

Trackers List

Tracker NameLast CheckStatusSeedersLeechers



Torrent File Content (6 files)


Bionicle The Legend Reborn[2009]DvDRip[Eng]-Uvall
     Bionicle The Legend Reborn[2009]DvDRip[Eng]-Uvall.avi -
1.17 GB

     Bionicle The Legend Reborn[2009]DvDRip[Eng]-Uvall.sub -
7.53 MB

     Bionicle The Legend Reborn[2009]DvDRip[Eng]-Uvall.idx -
96.12 KB

     Cover.jpg -
71.93 KB

     Bionicle The Legend Reborn.nfo -
2.67 KB

     tracked_by_h33t_com.txt -
23 bytes



Description



~~~~~~~~~~~~~~~~~~~~~~~~~~~~~~~~~~~~~~~~~~~~~~~~~~~~~~~~~~~~~~~~~~~
Title: Bionicle The Legend Reborn[2009]
~~~~~~~~~~~~~~~~~~~~~~~~~~~~~~~~~~~~~~~~~~~~~~~~~~~~~~~~~~~~~~~~~~~
~~~~~~~~~~~~~~~~~~~~~~~~~~~~~~~~~~~~~~~~~~~~~~~~~~~~~~~~~~~~~~~~~~~
Release Notes

Genre: Animation | Action | Adventure | Sci-Fi

Rated: PG-13 for some intense sequences of sci-fi action and violence, and brief
suggestive content.

Movie Information: http://www.imdb.com/title/tt1473345/

Plot: Once the ruler of an entire universe, the Great Spirit Mata
Nui finds himself cast out of his own body

Format : AVI
Format/Info : Audio Video Interleave
File size : 1.17 GiB
Duration : 1h 20mn
Overall bit rate : 2 079 Kbps
Movie name : Bionicle The Legend Reborn[2009]DvDRip[Eng]-Uvall
Writing application : Lavf52.33.0

Video
Format : MPEG-4 Visual
Format profile : [email protected]
Format settings, BVOP : No
Format settings, QPel : No
Format settings, GMC : No warppoints
Format settings, Matrix : Default (H.263)
Codec ID : XVID
Codec ID/Hint : XviD
Duration : 1h 20mn
Bit rate : 1 620 Kbps
Width : 704 pixels
Height : 398 pixels
Display aspect ratio : 16:9
Frame rate : 23.976 fps
Resolution : 24 bits
Colorimetry : 4:2:0
Scan type : Progressive
Bits/(Pixel*Frame) : 0.241
Stream size : 934 MiB (78%)
Writing library : XviD 1.2.1 (UTC 2008-12-04)

Audio
Format : AC-3
Format/Info : Audio Coding 3
Codec ID : 2000
Duration : 1h 20mn
Bit rate mode : Constant
Bit rate : 448 Kbps
Channel(s) : 6 channels
Channel positions : Front: L C R, Surround: L R, LFE
Sampling rate : 48.0 KHz
Stream size : 258 MiB (22%)
Alignment : Aligned on interleaves
Interleave, duration : 32 ms (0.77 video frame)
~~~~~~~~~~~~~~~~~~~~~~~~~~~~~~~~~~~~~~~~~~~~~~~~~~~~~~~~~~~~~~~~~~~
~~~~~~~~~~~~~~~~~~~~~~~~~~~~~~~~~~~~~~~~~~~~~~~~~~~~~~~~~~~~~~~~~~~
Posted By: Uvall
~~~~~~~~~~~~~~~~~~~~~~~~~~~~~~~~~~~~~~~~~~~~~~~~~~~~~~~~~~~~~~~~~~~

Related torrents

Torrent NameAddedSizeSeedLeechHealth
5 months ago - in Movies700.37 MB01
1 Year+ - in Movies4.06 GB11
10 months ago - in Movies4.43 GB00
1 Year+ - in Movies799.18 MB00
1 Year+ - in Movies708.07 MB01

Note :

Feel free to post any comments about this torrent, including links to Subtitle, samples, screenshots, or any other relevant information. Please Dont Download anything from Comments And Links to Streaming Sites like Watch Online Bionicle The Legend Reborn[2009]DvDRip[Eng]-Uvall 1 Full Movie free etc.

Comments (0 Comments)




Please login or create a FREE account to post comments

Latest Searches