Verified torrent Bumblebee (2018) 720p Hindi Dubbed (Cleaned) BRRip x264 Mp3 ESub by Full4movies


    Seeders : 19      Leechers : 8

Hash :3789A28F6D3438E50DF7AE26BB96C00D06EE7A19
Added :Last Month by India4movieVerified torrent uploader in Movies
Size :1.04 GB
Stream :Watch Movie Online @ Movie4u
Share :


Bumblebee (2018) 720p Hindi Dubbed (Cleaned) BRRip x264 Mp3 ESub by Full4movies
Use a VPN to make yourself hidden while Downloading torrents.







Warning! Please Download Torrents with a VPN.
Your IP Address is 3.90.12.112.   And Location is United States,
Your Internet Service Provider and Government can track your Online Activity!  Protect yourself from expensive lawsuits and fines NOW!
We Strongly Recommend Using Best Cheapest VPN to Anonymize your Torrenting.

Note :

Please Update (Trackers Info) Before Start Torrents Downloading to See Updated Seeders And Leechers for Batter Download Speed.

Trackers List

Tracker NameLast CheckStatusSeedersLeechers
udp://tracker.tiny-vps.com:6969/announce27 days agosuccess158
udp://tracker.internetwarriors.net:1337/announce27 days agosuccess148
udp://bt.xxx-tracker.com:2710/announce27 days agosuccess127
udp://open.stealth.si:80/announce27 days agosuccess116
udp://9.rarbg.me:2710/announce27 days agosuccess72
udp://9.rarbg.to:2720/announce27 days agosuccess72
udp://9.rarbg.to:2770/announce27 days agosuccess72
udp://9.rarbg.to:2730/announce27 days agosuccess72
udp://9.rarbg.to:2740/announce27 days agosuccess72
udp://9.rarbg.me:2770/announce27 days agosuccess72
udp://9.rarbg.me:2730/announce27 days agosuccess72
udp://9.rarbg.me:2740/announce27 days agosuccess72
udp://9.rarbg.to:2710/announce27 days agosuccess72
udp://thetracker.org:80/announce27 days agosuccess40
udp://tracker.opentrackr.org:1337/announce27 days agosuccess20
udp://tracker.cyberia.is:6969/announce27 days agosuccess10
udp://inferno.demonoid.pw:3418/announce29 days agofailed00
udp://shadowshq.yi.org:6969/announce27 days agofailed00
udp://tracker.coppersurfer.tk:6969/announce27 days agofailed00
udp://tracker.leechers-paradise.org:6969/announceLast Monthsuccess00
udp://tracker.pirateparty.gr:6969/announce27 days agofailed00
udp://exodus.desync.com:6969/announce27 days agosuccess00
udp://public.popcorn-tracker.org:6969/announce27 days agofailed00
udp://tracker.cypherpunks.ru:6969/announce27 days agofailed00
udp://tracker.zer0day.to:1337/announce27 days agofailed00
udp://asnet.pw:2710/announce27 days agofailed00
udp://tracker.acg.gg:2710/announce27 days agofailed00
udp://tracker.port443.xyz:6969/announce27 days agosuccess00
http://bt.acg.gg:1578/announce27 days agofailed00
udp://tracker.uw0.xyz:6969/announceLast Monthsuccess00
udp://ipv4.tracker.harry.lu:80/announce27 days agofailed00
udp://tracker.vanitycore.co:6969/announce27 days agofailed00
udp://tracker.trackerfix.com:80/announce27 days agofailed00
udp://explodie.org:6969/announceLast Monthsuccess00
udp://eddie4.nl:6969/announce27 days agofailed00
http://tracker3.itzmx.com:8080/announce27 days agofailed00
udp://tracker.torrent.eu.org:45127 days agosuccess00
udp://tracker.mg64.net:6969/announce27 days agofailed00
udp://tracker.torrent.eu.org:451/announce27 days agosuccess00
http://share.camoe.cn:8080/announce27 days agofailed00
udp://exodus.desync.com:6969/Last Monthsuccess00
udp://tracker.justseed.it:1337/announce27 days agosuccess00
udp://tracker.coppersurfer.tk:80/announce27 days agofailed00
udp://p4p.arenabg.ch:1337/announce29 days agofailed00
udp://glotorrents.pw:6969/announce27 days agofailed00
udp://ipv6.tracker.harry.lu:80/announce27 days agofailed00



Torrent File Content (1 file)


     Bumblebee (2018) 720p Hindi Dubbed (Cleaned) BRRip x264 Mp3 ESub by Full4movies.mkv -
1.04 GB



Description



https://extraimage.net/images/2019/03/24/a94b55aaf312f8ad0f3dd9e06005facb.jpg


General
Complete name : Bumblebee (2018) 720p Hindi Dubbed (Cleaned) BRRip x264 Mp3 ESub by Full4movies.mkv
Format : Matroska
Format version : Version 4
File size : 1.04 GiB
Duration : 1 h 53 min
Overall bit rate mode : Variable
Overall bit rate : 1 303 kb/s
Movie name : www.full4movies.me
Encoded date : UTC 2019-03-23 11:50:21
Writing application : mkvmerge v6.9.1 ('Blue Panther') 32bit built on Apr 18 2014 18:15:44
Writing library : libebml v1.3.0 + libmatroska v1.4.1

Video
ID : 1
Format : AVC
Format/Info : Advanced Video Codec
Format profile : [email protected]
Format settings : CABAC / 9 Ref Frames
Format settings, CABAC : Yes
Format settings, ReFrames : 9 frames
Codec ID : V_MPEG4/ISO/AVC
Duration : 1 h 53 min
Bit rate : 1 200 kb/s
Width : 1 280 pixels
Height : 720 pixels
Display aspect ratio : 16:9
Frame rate mode : Constant
Frame rate : 23.976 FPS
Color space : YUV
Chroma subsampling : 4:2:0
Bit depth : 8 bits
Scan type : Progressive
Bits/(Pixel*Frame) : 0.054
Stream size : 962 MiB (91%)
Writing library : x264 core 157 r2935 545de2f
Language : English
Default : Yes
Forced : No

Audio
ID : 2
Format : MPEG Audio
Format version : Version 1
Format profile : Layer 3
Format settings : Joint stereo / MS Stereo
Codec ID : A_MPEG/L3
Codec ID/Hint : MP3
Duration : 1 h 59 min
Bit rate mode : Variable
Bit rate : 96.0 kb/s
Channel(s) : 2 channels
Sampling rate : 44.1 kHz
Frame rate : 38.281 FPS (1152 SPF)
Compression mode : Lossy
Stream size : 82.2 MiB (8%)
Writing library : LAME3.99r
Encoding settings : -m j -V 4 -q 3 -lowpass 15.1 --abr 96
Language : Hindi
Default : Yes
Forced : Yes

Text
ID : 3
Format : UTF-8
Codec ID : S_TEXT/UTF8
Codec ID/Info : UTF-8 Plain Text
Language : English
Default : Yes
Forced : No

Screen Shoots
https://extraimage.net/images/2019/03/24/2ae05111c7037d027b3dceeae37e9a40.jpg

Related torrents

Torrent NameAddedSizeSeedLeechHealth
Verified torrent
Last Month - in Movies758.38 MB00
Verified torrent
Last Month - in Movies1.3 GB85
Verified torrent
Last Month - in Movies387.6 MB41
Last Month - in Other1.19 GB23
Verified torrent
6 months ago - in Movies1.36 GB26
6 months ago - in Other826.41 MB00

Note :

Feel free to post any comments about this torrent, including links to Subtitle, samples, screenshots, or any other relevant information. Please Dont Download anything from Comments, And Links to Streaming Sites like Watch Online Bumblebee (2018) 720p Hindi Dubbed (Cleaned) BRRip x264 Mp3 ESub by Full4movies Full Movie, Fmovies, 123Movies, Putlocker, Netflix, etc.

Comments (0 Comments)




Please login or create a FREE account to post comments

Latest Searches