Cem Yilmaz in G.O.R.A. Filmi


    Seeders : 0      Leechers : 0

Torrent Hash :DBD74F155A917067A981F355019C8D83C0F02ED1
Torrent Added :1 Year+ in Movies
Torrent Size :1.37 GB
VPN :Download torrent Safely and Anonymously with Cheap VPN : Get VPN NOW


Cem Yilmaz in G.O.R.A. Filmi
Fast And Direct Download Safely And Anonymously!










Note :

Please Update (Trackers Info) Before Start "Cem Yilmaz in G.O.R.A. Filmi" Torrent Downloading to See Updated Seeders And Leechers for Batter Torrent Download Speed.

Trackers List

Tracker NameLast CheckStatusSeedersLeechers



Torrent File Content (1 file)


     G.O.R.A.avi -
1.37 GB



Description



Format                           : AVI
Format/Info : Audio Video Interleave
File size : 1.37 GiB
Duration : 2h 3mn
Overall bit rate : 1 590 Kbps

Video
Format : MPEG-4 Visual
Format profile : [email protected]
Format settings, BVOP : Yes
Format settings, QPel : No
Format settings, GMC : No warppoints
Format settings, Matrix : Custom
Codec ID : XVID
Codec ID/Hint : XviD
Duration : 2h 3mn
Bit rate : 1 199 Kbps
Width : 640 pixels
Height : 368 pixels
Display aspect ratio : 16/9
Frame rate : 25.000 fps
Resolution : 24 bits
Colorimetry : 4:2:0
Scan type : Progressive
Bits/(Pixel*Frame) : 0.204
Stream size : 1.03 GiB (75%)
Writing library : XviD 1.0.1 (UTC 2004-06-05)

Audio
Format : AC-3
Format/Info : Audio Coding 3
Codec ID : 2000
Duration : 2h 2mn
Bit rate mode : Constant
Bit rate : 384 Kbps
Channel(s) : 6 channels
Channel positions : Front: L C R, Surround: L R, LFE
Sampling rate : 48.0 KHz
Stream size : 336 MiB (24%)
Alignment : Split accross interleaves
Interleave, duration : 40 ms (1.01 video frame)
Interleave, preload duration : 500 ms
Language : Turkish / Turkish

Related torrents

Torrent NameAddedSizeSeedLeechHealth
1 Year+ - in Movies699.84 MB00
1 Year+ - in Other63.22 MB10
1 Year+ - in Movies1.75 GB00
1 Year+ - in Other1.15 GB00
1 Year+ - in Movies704.04 MB00

Note :

Feel free to post any comments about this torrent, including links to Subtitle, samples, screenshots, or any other relevant information. Watch Cem Yilmaz in G.O.R.A. Filmi Full Movie Online Free, Like 123Movies, FMovies, Putlocker, Netflix or Direct Download Torrent Cem Yilmaz in G.O.R.A. Filmi via Magnet Download Link.

Comments (0 Comments)




Please login or create a FREE account to post comments

People Searches