Dallas Buyers Club 2013 (1080p Bluray x265 HEVC 10bit AAC 5 1 Tigole)


    Seeders : 4      Leechers : 1


Note :

Please Update (Trackers Info) Before Start Torrents Downloading to See Updated Seeders And Leechers for Batter Download Speed.

Trackers List

Tracker NameLast CheckStatusSeedersLeechers
udp://tracker.opentrackr.org:1337/announceLast Monthsuccess41
udp://tracker.tiny-vps.com:6969/announceLast Monthsuccess21
udp://ipv4.tracker.harry.lu:80/announceLast Monthsuccess21
udp://9.rarbg.me:2710/announceLast Monthsuccess21
udp://9.rarbg.to:2710/announceLast Monthsuccess21
udp://9.rarbg.me:2740/announceLast Monthsuccess21
udp://9.rarbg.me:2730/announceLast Monthsuccess21
udp://tracker.coppersurfer.tk:6969/announceLast Monthsuccess21
udp://9.rarbg.me:2770/announceLast Monthsuccess21
udp://9.rarbg.to:2740/announceLast Monthsuccess21
udp://9.rarbg.to:2730/announceLast Monthsuccess21
udp://retracker.lanta-net.ru:2710/announceLast Monthsuccess21
udp://9.rarbg.to:2770/announceLast Monthsuccess21
udp://9.rarbg.to:2720/announceLast Monthsuccess21
udp://tracker.pirateparty.gr:6969/announceLast Monthsuccess21
udp://open.stealth.si:80/announceLast Monthsuccess11
http://tracker3.itzmx.com:8080/announceLast Monthfailed00
udp://zer0day.ch:1337/announceLast Monthfailed00
udp://tracker.torrent.eu.org:451/announceLast Monthsuccess00
http://tracker.publicbt.com/announceLast Monthfailed00
http://bt.acg.gg:1578/announceLast Monthfailed00
udp://tracker.mg64.net:6969/announceLast Monthfailed00
udp://tracker.port443.xyz:6969/announceLast Monthfailed00
udp://tracker.torrent.eu.org:451Last Monthsuccess00
udp://public.popcorn-tracker.org:6969/announceLast Monthfailed00
udp://tracker.acg.gg:2710/announceLast Monthfailed00
udp://asnet.pw:2710/announceLast Monthfailed00
udp://tracker.cyberia.is:6969/announceLast Monthsuccess00
udp://tracker.zer0day.to:1337/announceLast Monthfailed00
udp://tracker.vanitycore.co:6969/announceLast Monthfailed00
udp://inferno.demonoid.pw:3418/announceLast Monthfailed00
udp://tracker.cypherpunks.ru:6969/announceLast Monthfailed00
udp://tracker.justseed.it:1337/announceLast Monthfailed00
udp://tracker.publicbt.com:80/announceLast Monthfailed00
udp://tracker.openbittorrent.com:80/announceLast Monthfailed00
udp://exodus.desync.com:6969/announceLast Monthsuccess00
udp://tracker.leechers-paradise.org:6969/announceLast Monthfailed00
http://tracker.tfile.me/announceLast Monthfailed00
http://bigfoot1942.sektori.org:6969/announceLast Monthfailed00
udp://shadowshq.yi.org:6969/announceLast Monthfailed00
udp://explodie.org:6969/announceLast Monthsuccess00
udp://eddie4.nl:6969/announceLast Monthfailed00
udp://thetracker.org:80/announceLast Monthfailed00
http://explodie.org:6969/announceLast Monthfailed00
http://share.camoe.cn:8080/announceLast Monthfailed00
udp://tracker.internetwarriors.net:1337/announceLast Monthfailed00
udp://tracker.coppersurfer.tk:80/announceLast Monthfailed00
udp://ipv6.tracker.harry.lu:80/announceLast Monthsuccess00
udp://tracker.pomf.se:80/announceLast Monthfailed00
udp://tracker.trackerfix.com:80/announceLast Monthfailed00
udp://bt.xxx-tracker.com:2710/announceLast Monthfailed00
udp://glotorrents.pw:6969/announceLast Monthfailed00
udp://tracker4.piratux.com:6969/announceLast Monthfailed00
udp://tracker.blackunicorn.xyz:6969/announceLast Monthfailed00
udp://p4p.arenabg.ch:1337/announceLast Monthfailed00
udp://torrent.gresille.org:80/announceLast Monthfailed00
udp://tracker.piratepublic.com:1337/announceLast Monthfailed00



Torrent File Content (1 file)


Dallas Buyers Club 2013 (1080p Bluray x265 HEVC 10bit AAC 5.1 Tigole)
     Dallas Buyers Club 2013 (1080p x265 10bit Tigole).mkv -
1.94 GB



Description



 							image

Dallas Buyers Club 2013 in 1080p, encoded with x265 in HEVC and AAC 5.1 English, with subtitle!
Encoded using the time consuming 2 pass, 10 bit color at 2050 kbps, from a Blu-ray source, for the highest quality possible.

Media InformationGeneral
Unique ID : 189659716899990521956864355647276559223 (0x8EAF21FF52AFF999A125C7093695AB77)
Complete name : Dallas Buyers Club 2013 (1080p x265 10bit Tigole).mkv
Format : Matroska
Format version : Version 4 / Version 2
File size : 1.94 GiB
Duration : 1h 56mn
Overall bit rate : 2 371 Kbps
Encoded date : UTC 2016-05-22 09:38:09
Writing application : mkvmerge v9.0.1 ('Obstacles') 64bit
Writing library : libebml v1.3.3 + libmatroska v1.4.4

Video
ID : 1
Format : HEVC
Format/Info : High Efficiency Video Coding
Format profile : Main [email protected]@Main
Codec ID : V_MPEGH/ISO/HEVC
Duration : 1h 56mn
Bit rate : 2 052 Kbps
Width : 1 920 pixels
Height : 800 pixels
Display aspect ratio : 2.40:1
Frame rate mode : Constant
Frame rate : 23.976 (24000/1001) fps
Color space : YUV
Chroma subsampling : 4:2:0
Bit depth : 10 bits
Bits/(Pixel*Frame) : 0.056
Stream size : 1.68 GiB (87%)
Writing library : x265 1.9+140-34a3d35c5f97:[Windows][GCC 5.3.0][64 bit] 10bit
Encoding settings : wpp / ctu=64 / min-cu-size=8 / max-tu-size=32 / tu-intra-depth=1 / tu-inter-depth=1 / me=1 / subme=2 / merange=57 / no-rect / no-amp / max-merge=2 / temporal-mvp / no-early-skip / rdpenalty=0 / no-tskip / no-tskip-fast / strong-intra-smoothing / no-lossless / no-cu-lossless / no-constrained-intra / no-fast-intra / open-gop / no-temporal-layers / interlace=0 / keyint=250 / min-keyint=23 / scenecut=40 / rc-lookahead=20 / lookahead-slices=5 / bframes=4 / bframe-bias=0 / b-adapt=2 / ref=3 / limit-refs=3 / no-limit-modes / weightp / no-weightb / aq-mode=1 / qg-size=32 / aq-strength=1.00 / cbqpoffs=0 / crqpoffs=0 / rd=3 / psy-rd=2.00 / rdoq-level=0 / psy-rdoq=0.00 / no-rd-refine / signhide / deblock=0:0 / sao / no-sao-non-deblock / b-pyramid / cutree / no-intra-refresh / rc=2 / pass / bitrate=2052 / qcomp=0.60 / qpmin=0 / qpmax=51 / qpstep=4 / cplxblur=20.0 / qblur=0.5 / ipratio=1.40 / pbratio=1.30
Default : Yes
Forced : No

Audio
ID : 2
Format : AAC
Format/Info : Advanced Audio Codec
Format profile : LC
Codec ID : A_AAC
Duration : 1h 56mn
Bit rate : 316 Kbps
Channel(s) : 6 channels
Channel positions : Front: L C R, Side: L R, LFE
Sampling rate : 48.0 KHz
Frame rate : 46.875 fps (1024 spf)
Compression mode : Lossy
Delay relative to video : 20ms
Stream size : 265 MiB (13%)
Language : English
Default : No
Forced : No

Text
ID : 3
Format : UTF-8
Codec ID : S_TEXT/UTF8
Codec ID/Info : UTF-8 Plain Text
Duration : 1h 49mn
Bit rate : 57 bps
Count of elements : 1403
Stream size : 46.1 KiB (0%)
Language : English
Default : No
Forced : No

Menu
00:00:00.000 : en:Chapter 01
00:06:20.672 : en:Chapter 02
00:11:52.879 : en:Chapter 03
00:18:41.579 : en:Chapter 04
00:24:55.703 : en:Chapter 05
00:29:44.282 : en:Chapter 06
00:35:15.697 : en:Chapter 07
00:41:33.282 : en:Chapter 08
00:46:32.873 : en:Chapter 09
00:51:49.023 : en:Chapter 10
00:55:37.834 : en:Chapter 11
01:01:25.974 : en:Chapter 12
01:07:16.783 : en:Chapter 13
01:12:37.645 : en:Chapter 14
01:19:55.249 : en:Chapter 15
01:28:25.550 : en:Chapter 16
01:36:56.644 : en:Chapter 17
01:43:06.639 : en:Chapter 18
01:47:59.473 : en:Chapter 19
01:52:12.851 : en:Chapter 20

Source InformationUnique ID : 186210785567200174026510843564103604968 (0x8C16E48DD4D11FF68F7577EE07189AE8)
Complete name : Dallas.Buyers.Club.2013.1080p.BluRay.DTS.x264.D-Z0N3.mkv
File size : 20.4 GiB
Duration : 1h 56mn
Overall bit rate : 25.0 Mbps


Related torrents

Torrent NameAddedSizeSeedLeechHealth
1 Year+ - in Movies1.79 GB00
7 months ago - in Movies3.95 GB125
9 months ago - in Movies3.9 GB50
1 Year+ - in Movies4.67 GB03
1 Year+ - in Movies3.63 GB20

Note :

Feel free to post any comments about this torrent, including links to Subtitle, samples, screenshots, or any other relevant information. Watch Dallas Buyers Club 2013 (1080p Bluray x265 HEVC 10bit AAC 5 1 Tigole) Free Full Movies Online, Like 123Movies, Fmovies, Putlocker, Netflix or Direct Download Torrent Dallas Buyers Club 2013 (1080p Bluray x265 HEVC 10bit AAC 5 1 Tigole) via Magnet Link.

Comments (0 Comments)




Please login or create a FREE account to post comments

People Searches