Dark Floors[2008] DD 5.1 Lordi Monsters Subs Fin Swe Nor DivX *DM*


    Seeders : 33      Leechers : 21

Hash :A4BBA9C872A4C022BB4AB49786A466F75BEA3759
Added :1 Year+ in Movies
Size :820.23 MB
Stream :Watch FREE Full Movies @ Movie4u


Dark Floors[2008] DD 5.1 Lordi Monsters Subs Fin Swe Nor DivX *DM*
Download your torrents safely! And Anonymously!








WARNING! Turn on your VPN before downloading Torrents.
Your IP Address is 54.234.208.87.   And Location United States, Ashburn
Your Internet Service Provider and Government can track your Online Activity!  Protect yourself from expensive lawsuits and fines NOW!
We Strongly Recommend Using Very Cheap VPN for P2P to Anonymize your Torrenting.

Note :

Please Update (Trackers Info) Before Start Torrents Downloading to See Updated Seeders And Leechers for Batter Download Speed.

Trackers List

Tracker NameLast CheckStatusSeedersLeechers



Torrent File Content (9 files)


Dark.Floors[2008] DD.5.1.Lordi Monsters.Subs Fin Swe Nor.DivX-DM
     Dark Floors DD.5.1.avi -
819.78 MB

     Dark Floors DD.5.1.Finnish.srt -
27.8 KB

     Dark Floors DD.5.1.Norwegian.srt -
27.26 KB

     Dark Floors DD.5.1.Swedish.srt -
27.85 KB

     DarkFloors1.jpg -
53.82 KB

     DarkFloors2.jpg -
124.8 KB

     DarkFloors3.jpg -
118.84 KB

     DarkFloors4.jpg -
78.56 KB

     Torrent downloaded from Demonoid.com.txt -
47 bytes



Description




DARK FLOORS (2008) aka Lordi Motion Picture

DivX pro 6.8 (.avi) and original DD 5.1 sound

What about quality ? Beating aXXo easily for sure !!! His mp3 at 112 kbps stereo 2 channels is kind of pathetic. Here you get 6 channels AC3 DD.5.1 at 448 kbps !!!

And video qty should be better too..(Yes, i know the guy. He is going for low
bitrates and low resolutions, always).


Movie and Subs (external) Dvd-DivX-Player compatible.


While in the hospital for a tomography of the brain of his autistic
daughter Sarah, Ben becomes upset when there is a power failure.
He decides to leave the hospital with Sarah, while the nurse Emily
tries to convince him to leave Sarah for further treatment. They
get the elevator with three other passengers, and suddenly the
elevator stops; when the door opens, people has vanished from the
hospital, the environment is creepy and they are chased by devilish
monsters. They find that they are trapped in the hospital, and
the creatures seem to be hunting Sarah.


Source........ PAL DVD Retail
Audio......... English - Original DD 5.1 AC3
Resolution.... 688x288
Bitrate....... 944 kbps
Codec......... DivX pro 6.8: quality-based 2-pass VBR, Extreme quality settings
Subs.......... External subs in FIN SWE NOR (.srt) PC and TV compatible

----------------------------------------------------------------------------------
LOG:

General
Complete name : H:AVI movies 5.1 sound XviD DivX ac-3
DARK FLOORSDark Floors DD.5.1.avi
Format : AVI
Format/Info : Audio Video Interleave
File size : 820 MiB
Duration : 1h 21mn
Overall bit rate : 1 402 Kbps
Writing application : FairUse Wizard - http://fairusewizard.com
Writing library : The best and REALLY easy backup tool

Video
Format : MPEG-4 Visual
Format settings, BVOP : Yes
Format settings, QPel : No
Format settings, GMC : No warppoints
Format settings, Matrix : Default (H.263)
Muxing mode : Packed bitstream
Codec ID : DX50
Codec ID/Hint : DivX 5
Duration : 1h 21mn
Bit rate : 944 Kbps
Width : 688 pixels
Height : 288 pixels
Display aspect ratio : 2.35
Frame rate : 25.000 fps
Resolution : 24 bits
Colorimetry : 4:2:0
Scan type : Progressive
Bits/(Pixel*Frame) : 0.191
Stream size : 552 MiB (67%)
Writing library : DivX 6.8.0 (UTC 2007-12-04)

Audio
Format : AC-3
Format/Info : Audio Coding 3
Codec ID : 2000
Duration : 1h 21mn
Bit rate mode : Constant
Bit rate : 448 Kbps
Channel(s) : 6 channels
Channel positions : Front: L C R, Surround: L R, LFE
Sampling rate : 48.0 KHz
Stream size : 262 MiB (32%)
Alignment : Split accross interleaves
Interleave, duration : 40 ms (1.00 video frame)
Interleave, preload duration : 500 ms

Related torrents

Torrent NameAddedSizeSeedLeechHealth
1 Year+ - in Movies848.67 MB00
1 Year+ - in Movies469.87 MB95
1 Year+ - in Movies848.78 MB00
1 Year+ - in Movies875.58 MB00
1 Year+ - in Movies875.68 MB00

Note :

Feel free to post any comments about this torrent, including links to Subtitle, samples, screenshots, or any other relevant information. Watch Dark Floors[2008] DD 5.1 Lordi Monsters Subs Fin Swe Nor DivX *DM* Free Movies Online, Like 123Movies, Fmovies, Putlockers, Popcorntime, Netflix or Direct Download Dark Floors[2008] DD 5.1 Lordi Monsters Subs Fin Swe Nor DivX *DM* via Magnet Link.

Comments (0 Comments)




Please login or create a FREE account to post comments

Latest Searches