Enter the Dragon (1973)[Mini BR ISO 1080p AC3][Lektor i Napisy PL Eng][Eng]


    Seeders : 0      Leechers : 0


Note :

Please Update (Trackers Info) Before Start Torrents Downloading to See Updated Seeders And Leechers for Batter Download Speed.

Trackers List

Tracker NameLast CheckStatusSeedersLeechers



Torrent File Content (10 files)


Enter the Dragon (1973)-alE13
     == alE13 ==.iso -
4.08 GB

     subtitles.rar -
12.41 MB

     1.jpg -
450.64 KB

    info
          2.jpg -
245.73 KB

     txt.jpg -
176.93 KB

          Nostalgie.jpg -
138.36 KB

     == alE13 ==.mds -
4.21 KB

          Torrent downloaded from alE13 torrents at BTScene.org.txt -
120 bytes

          Torrent downloaded from demonoid.pw.txt -
46 bytes

          Torrent downloaded from filetracker.pl -
46 bytes



Description



Movies : Action : Blu-ray  : English


http://www.filmweb.pl/Wejscie.Smoka
http://www.imdb.com/title/tt0070034/

gatunek: Akcja, Sztuki walki
premiera: 26-06-1973
produkcja: Hongkong, USA
re?yseria: Robert Clouse
scenariusz: Michael Allin
muzyka: Lalo Schifrin
zdj?cia: Gil Hubbs
czas: 01:42:36

opis:

A martial artist agrees to spy on a reclusive
crime lord using his invitation to a tournament
there as cover.

W Hongkongu co trzy lata odbywaj? si? na prywatnej
wyspie Hana turnieje zawodników walk wschodnich.
Spotykaj? si? tam s?awy ?wiatowego karate. Rz?dowej
agencji ds. zwalczania przest?pczo?ci udaje si?
nak?oni? do wspó?pracy mistrza kung-fu Lee. Z klasztoru
Shaolin udaje si? na wysp? Hana, gdy? tam w?a?nie mie?ci
si? siedziba gangu. Dodatkowym zadaniem Lee jest tak?e
odszukanie zaginionej agentki. Przed wyjazdem bohater
dowiaduje si?, ?e to jeden z ludzi Hana jest odpowiedzialny
za ?mier? jego siostry.






obsada:

Bruce Lee, John Saxon,Jim Kelly, Bolo Yeung

dane techniczne:

General
ID : 0 (0x0)
Complete name : H:BDMVSTREAM0000.m2ts
Format : BDAV
Format/Info : Blu-ray Video
File size : 4.06 GiB
Duration : 1h 42mn
Overall bit rate mode : Variable
Overall bit rate : 5 662 Kbps
Maximum Overall bit rate : 48.0 Mbps

Video
ID : 4113 (0x1011)
Menu ID : 1 (0x1)
Format : AVC
Format/Info : Advanced Video Codec
Format profile : [email protected] /* */
Format settings, CABAC : Yes
Format settings, ReFrames : 2 frames
Codec ID : 27
Duration : 1h 42mn
Bit rate mode : Variable
Bit rate : 4 527 Kbps
Maximum bit rate : 6 685 Kbps
Width : 1 920 pixels
Height : 1 080 pixels
Display aspect ratio : 16:9
Frame rate : 23.976 fps
Color space : YUV
Chroma subsampling : 4:2:0
Bit depth : 8 bits
Scan type : Progressive
Bits/(Pixel*Frame) : 0.091
Stream size : 3.24 GiB (80%)

Audio #1
ID : 4352 (0x1100)
Menu ID : 1 (0x1)
Format : AC-3
Format/Info : Audio Coding 3
Mode extension : CM (complete main)
Format settings, Endianness : Big
Codec ID : 129
Duration : 1h 42mn
Bit rate mode : Constant
Bit rate : 448 Kbps
Channel(s) : 6 channels
Channel positions : Front: L C R, Side: L R, LFE
Sampling rate : 48.0 KHz
Bit depth : 16 bits
Compression mode : Lossy
Stream size : 329 MiB (8%)

Audio #2
ID : 4353 (0x1101)
Menu ID : 1 (0x1)
Format : AC-3
Format/Info : Audio Coding 3
Mode extension : CM (complete main)
Format settings, Endianness : Big
Codec ID : 129
Duration : 1h 42mn
Bit rate mode : Constant
Bit rate : 448 Kbps
Channel(s) : 2 channels
Channel positions : Front: L R
Sampling rate : 48.0 KHz
Bit depth : 16 bits
Compression mode : Lossy
Delay relative to video : 710ms
Stream size : 329 MiB (8%)

Text #1
ID : 4608 (0x1200)
Menu ID : 1 (0x1)
Format : PGS
Codec ID : 144

Text #2
ID : 4609 (0x1201)
Menu ID : 1 (0x1)
Format : PGS
Codec ID : 144

Facebook Twitter Google Digg Reddit LinkedIn StumbleUpon Email

Related torrents

Torrent NameAddedSizeSeedLeechHealth
1 Year+ - in Movies4.34 GB00
1 Year+ - in Other4.03 GB00
1 Year+ - in Movies7.5 GB00
1 Year+ - in Movies3.81 GB10
1 Year+ - in Movies3.54 GB11

Note :

Feel free to post any comments about this torrent, including links to Subtitle, samples, screenshots, or any other relevant information. Watch Enter the Dragon (1973)[Mini BR ISO 1080p AC3][Lektor i Napisy PL Eng][Eng] Free Full Movies Online, Like 123Movies, Fmovies, Putlocker, Netflix or Direct Download Torrent Enter the Dragon (1973)[Mini BR ISO 1080p AC3][Lektor i Napisy PL Eng][Eng] via Magnet Link.

Comments (0 Comments)




Please login or create a FREE account to post comments

People Searches