Fight.Night.2008.DVDRIP.XviD-ZEKTORM


    Seeders : 27      Leechers : 13

Torrent Hash :828EA325A76B88AC25A956E0690C65CE8833629C
Torrent Added :1 Year+ in Movies
Torrent Size :705.16 MB
VPN :Download torrent Safely and Anonymously with Cheap VPN : Get VPN NOW


Fight.Night.2008.DVDRIP.XviD-ZEKTORM
Fast And Direct Download Safely And Anonymously!










Note :

Please Update (Trackers Info) Before Start "Fight.Night.2008.DVDRIP.XviD-ZEKTORM" Torrent Downloading to See Updated Seeders And Leechers for Batter Torrent Download Speed.

Trackers List

Tracker NameLast CheckStatusSeedersLeechers



Torrent File Content (4 files)


Fight.Night.2008.DVDRIP.XviD-ZEKTORM
     Fight.Night.2008.DVDRIP.XviD-ZEKTORM.avi -
701.05 MB

     READ.hlp -
11.73 KB

    Subs
          Fight.Night.2008.DVDRIP.XviD-ZEKTORM.idx -
48.91 KB

          Fight.Night.2008.DVDRIP.XviD-ZEKTORM.sub -
4.05 MB



Description



Title                            : Rigged
Also Known As : Fight Night
Year : 2008
Genre : Action | Adventure | Crime | Drama
iMDB URL : http://www.imdb.com/title/tt0756707/
Awards : 2 wins

Complete name : Fight.Night.2008.DVDRIP.XviD-ZEKTORM.avi
Format : AVI
File size : 701 MiB
Duration : 1h 45mn
Overall bit rate : 930 Kbps
Subtitles : Spanish (Format: VobSub)
Source : DVD NTSC

Video
Format : MPEG-4 Visual
Format profile : Streaming [email protected]
Codec ID : DX50
Codec ID/Hint : DivX 5
Duration : 1h 45mn
Bit rate : 795 Kbps
Width : 720 pixels
Height : 400 pixels
Display aspect ratio : 16/9
Frame rate : 23.976 fps
Resolution : 24 bits
Colorimetry : 4:2:0
Scan type : Progressive
Bits/(Pixel*Frame) : 0.115
Stream size : 599 MiB (85%)
Writing library : XviD

Audio
Format : MPEG Audio
Format version : Version 1
Format profile : Layer 3
Codec ID : 55
Codec ID/Hint : MP3
Duration : 1h 45mn
Bit rate mode : Constant
Bit rate : 128 Kbps
Minimum bit rate : 128 Kbps
Channel(s) : 2 channels
Sampling rate : 48.0 KHz
Resolution : 16 bits
Stream size : 96.5 MiB (14%)
Writing library : LAME3.98r
Encoding settings : CBR

Related torrents

Torrent NameAddedSizeSeedLeechHealth
1 Year+ - in Movies701.79 MB1312
1 Year+ - in Movies699.84 MB00
1 Year+ - in Movies15.52 GB616
1 Year+ - in Movies700.21 MB00
10 months ago - in TV shows1.9 GB181

Note :

Feel free to post any comments about this torrent, including links to Subtitle, samples, screenshots, or any other relevant information. Watch Fight.Night.2008.DVDRIP.XviD-ZEKTORM Full Movie Online Free, Like 123Movies, FMovies, Putlocker, Netflix or Direct Download Torrent Fight.Night.2008.DVDRIP.XviD-ZEKTORM via Magnet Download Link.

Comments (0 Comments)




Please login or create a FREE account to post comments

People Searches