Fighting Tommy Riley DVD Rip


    Seeders : 0      Leechers : 2

Hash :4815941860367FE6D1BFD1B5AAD1DE165D41823E
Added :1 Year+ in Movies
Size :962.52 MB
Stream :Watch Full Movie @ Movie4u


Fighting Tommy Riley DVD Rip
Direct Download at faster Speed







Warning! Please Download Torrents with a VPN.
Your IP Address is 54.163.20.123.   And Location is United States, Ashburn
Your Internet Service Provider and Government can track your Online Activity!  Protect yourself from expensive lawsuits and fines NOW!
We Strongly Recommend Using FREE VPN for P2P to Anonymize your Torrenting.

Note :

Please Update (Trackers Info) Before Start Torrents Downloading to See Updated Seeders And Leechers for Batter Download Speed.

Trackers List

Tracker NameLast CheckStatusSeedersLeechers
udp://9.rarbg.to:2740/announce5 days agosuccess01
udp://tracker.tiny-vps.com:6969/announce5 days agosuccess00
udp://tracker.internetwarriors.net:1337/announce5 days agosuccess00
udp://open.stealth.si:80/announce5 days agofailed00
udp://tracker.torrent.eu.org:451/announce5 days agosuccess00
udp://tracker.mg64.net:6969/announce5 days agofailed00
udp://tracker.torrent.eu.org:4515 days agosuccess00
http://tracker3.itzmx.com:8080/announce5 days agofailed00
udp://9.rarbg.me:2740/announce5 days agosuccess01
udp://9.rarbg.me:2730/announce5 days agosuccess01
udp://9.rarbg.me:2770/announce5 days agosuccess01
udp://tracker.zer0day.to:1337/announce5 days agofailed00
udp://tracker.vanitycore.co:6969/announce5 days agofailed00
udp://tracker.opentrackr.org:1337/announce5 days agosuccess02
udp://9.rarbg.to:2730/announce5 days agosuccess01
udp://9.rarbg.to:2770/announce5 days agosuccess01
udp://tracker.pirateparty.gr:6969/announce5 days agofailed00
udp://9.rarbg.to:2720/announce5 days agosuccess01
udp://public.popcorn-tracker.org:6969/announce5 days agofailed00
udp://tracker.cypherpunks.ru:6969/announce5 days agofailed00
udp://inferno.demonoid.pw:3418/announce5 days agofailed00
udp://tracker.cyberia.is:6969/announce5 days agosuccess00
udp://asnet.pw:2710/announce5 days agofailed00
udp://tracker.acg.gg:2710/announce5 days agofailed00
udp://tracker.port443.xyz:6969/announce5 days agofailed00
http://bt.acg.gg:1578/announce5 days agofailed00
udp://shadowshq.yi.org:6969/announce5 days agofailed00
http://tracker.publicbt.com/announce5 days agofailed00
udp://tracker.ccc.de:80/announce5 days agofailed00
udp://tracker.publicbt.com:80/announce5 days agofailed00
udp://tracker.openbittorrent.com:80/announce5 days agosuccess00
udp://tracker.istole.it:80/announce5 days agofailed00
udp://ipv4.tracker.harry.lu:80/announce5 days agosuccess01
udp://9.rarbg.me:2710/announce5 days agosuccess01
udp://exodus.desync.com:6969/announce5 days agosuccess00
udp://tracker.torrentbox.com:2710/announce5 days agofailed00
udp://tracker.coppersurfer.tk:6969/announce7 days agofailed00
http://tracker.torrentbox.com:2710/announce5 days agofailed00
http://www.torrentsnipe.info:2701/announce5 days agofailed00
udp://9.rarbg.to:2710/announce5 days agosuccess01
udp://eddie4.nl:6969/announce5 days agofailed00
udp://thetracker.org:80/announce5 days agosuccess00
http://share.camoe.cn:8080/announce5 days agofailed00
udp://tracker.justseed.it:1337/announce5 days agosuccess00
udp://inferno.demonoid.com:3419/announce5 days agofailed00
http://inferno.demonoid.com:3419/announce5 days agofailed00
udp://tracker.coppersurfer.tk:80/announce7 days agofailed00
udp://ipv6.tracker.harry.lu:80/announce5 days agosuccess00
udp://tracker.trackerfix.com:80/announce5 days agofailed00
udp://bt.xxx-tracker.com:2710/announce5 days agosuccess01
udp://glotorrents.pw:6969/announce5 days agofailed00
udp://p4p.arenabg.ch:1337/announce5 days agofailed00



Torrent File Content (4 files)


Fighting.Tommy.Riley.DVDrip.Eng.M333
     Fighting Tommy Riley.jpg -
22.21 KB

     Fighting.Tommy.Riley.DVDrip.Eng.M333.avi -
962.5 MB

     NFO.txt -
1.93 KB

     Torrent downloaded from Demonoid.com.txt -
47 bytes



Description



General
Complete name : Fighting.Tommy.Riley.DVDrip.Eng.M333.avi
Format : AVI
Format/Info : Audio Video Interleave
File size : 963 MiB
Duration : 1h 49mn
Overal bit rate : 1228 Kbps
Movie name : Fighting.Tommy.Riley.DVDrip.Eng.M333
Director : M333
Writing application : Lavf51.19.0
Product : 3 0

Video
Format : MPEG-4 Visual
Format profile : [email protected]
Format settings, BVOP : No
Format settings, QPel : No
Format settings, GMC : No warppoints
Format settings, Matrix : Default
Codec ID : XVID
Codec ID/Hint : XviD
Duration : 1h 49mn
Bit rate : 991 Kbps
Width : 720 pixels
Height : 314 pixels
Display aspect ratio : 2.25
Frame rate : 25.000 fps
Resolution : 8 bits
Colorimetry : 4:2:0
Scan type : Progressive
Bits/(Pixel*Frame) : 0.175
Stream size : 777 MiB
Writing library : XviD 1.1.2 (UTC 2006-11-01)

Audio
Format : MPEG Audio
Format version : Version 1
Format profile : Layer 2
Codec ID : 50
Codec ID/Hint : MP1
Duration : 1h 49mn
Bit rate mode : Constant
Bit rate : 224 Kbps
Channel(s) : 2 channels
Sampling rate : 48.0 KHz
Resolution : 16 bits
Stream size : 176 MiB

Related torrents

Torrent NameAddedSizeSeedLeechHealth
1 Year+ - in Movies713.53 MB10
1 Year+ - in Movies706.53 MB13
1 Year+ - in Other1.37 GB00
1 Year+ - in Movies669.93 MB171
1 Year+ - in Movies690.89 MB02

Note :

Feel free to post any comments about this torrent, including links to Subtitle, samples, screenshots, or any other relevant information. Please Dont Download anything from Comments And Links to Streaming Sites like Watch Online Fighting Tommy Riley DVD Rip Full Movie free etc.

Comments (0 Comments)




Please login or create a FREE account to post comments

Latest Searches