Fried Green Tomatoes 1991 EXTENDED 1080p BluRay H264 AAC-RARBG


    Seeders : 0      Leechers : 0

Hash :C48A77457CB1123ACA6599A2E19EBA9D76348CE8
Added :1 Year+ in Other - Other
Size :2.6 GB
Stream :Watch FREE Full Movies @ Movie4u


Fried Green Tomatoes 1991 EXTENDED 1080p BluRay H264 AAC-RARBG
Download your torrents safely! And Anonymously!








Please Turn on your VPN before Downloading Torrents.
Your IP Address is 3.227.233.6.   And Location United States,
Your Internet Service Provider and Government can track your Online Activity!  Protect yourself from expensive lawsuits and fines NOW!
We Strongly Recommend Using Very Cheap VPN for P2P to Anonymize your Torrenting.

Note :

Please Update (Trackers Info) Before Start Torrents Downloading to See Updated Seeders And Leechers for Batter Download Speed.

Trackers List

Tracker NameLast CheckStatusSeedersLeechers
udp://9.rarbg.to:2740/announce10 months agosuccess00
udp://tracker.opentrackr.org:1337/announce10 months agofailed00
udp://tracker.tiny-vps.com:6969/announce10 months agofailed00
udp://tracker.internetwarriors.net:1337/announce10 months agofailed00
udp://p4p.arenabg.com:133710 months agofailed00
udp://open.stealth.si:80/announce10 months agosuccess00
udp://tracker.torrent.eu.org:451/announce10 months agosuccess00
udp://tracker.mg64.net:6969/announce10 months agofailed00
udp://tracker.torrent.eu.org:45110 months agosuccess00
http://tracker3.itzmx.com:8080/announce10 months agosuccess00
udp://9.rarbg.me:2740/announce10 months agosuccess00
udp://9.rarbg.me:2730/announce10 months agofailed00
udp://9.rarbg.me:2770/announce10 months agosuccess00
udp://tracker.zer0day.to:1337/announce10 months agofailed00
udp://tracker.vanitycore.co:6969/announce10 months agofailed00
udp://torrent.gresille.org:80/announce10 months agofailed00
udp://9.rarbg.to:2730/announce10 months agofailed00
udp://9.rarbg.to:2770/announce10 months agofailed00
udp://tracker.pirateparty.gr:6969/announce10 months agofailed00
udp://9.rarbg.to:2720/announce10 months agosuccess00
udp://public.popcorn-tracker.org:6969/announce10 months agosuccess00
udp://tracker.cypherpunks.ru:6969/announce10 months agofailed00
udp://inferno.demonoid.pw:3418/announce10 months agofailed00
udp://tracker.cyberia.is:6969/announce10 months agofailed00
udp://asnet.pw:2710/announce10 months agofailed00
udp://tracker.acg.gg:2710/announce10 months agofailed00
udp://tracker.port443.xyz:6969/announce10 months agosuccess00
http://bt.acg.gg:1578/announce10 months agofailed00
udp://eddie4.nl:6969/announce10 months agofailed00
udp://open.demonii.com:1337/announce10 months agofailed00
udp://tracker.publicbt.com:80/announce10 months agofailed00
udp://tracker.openbittorrent.com:80/announce10 months agofailed00
udp://ipv4.tracker.harry.lu:80/announce10 months agosuccess00
udp://9.rarbg.me:2710/announce10 months agosuccess00
http://tracker.trackerfix.com/announce10 months agofailed00
udp://exodus.desync.com:6969/announce10 months agofailed00
udp://tracker.leechers-paradise.org:6969/announce10 months agofailed00
http://tracker.tfile.me/announce10 months agofailed00
udp://tracker.coppersurfer.tk:6969/announce10 months agosuccess00
http://bigfoot1942.sektori.org:6969/announce10 months agosuccess00
udp://tracker.coppersurfer.tk:8010 months agosuccess00
udp://shadowshq.yi.org:6969/announce10 months agofailed00
http://tracker.publicbt.com/announce10 months agofailed00
udp://thetracker.org:80/announce10 months agosuccess00
http://explodie.org:6969/announce10 months agosuccess00
http://share.camoe.cn:8080/announce10 months agofailed00
udp://tracker.justseed.it:1337/announce10 months agofailed00
udp://tracker.coppersurfer.tk:80/announce10 months agofailed00
udp://ipv6.tracker.harry.lu:80/announce10 months agosuccess00
udp://tracker.pomf.se:80/announce10 months agofailed00
udp://tracker.trackerfix.com:80/announce10 months agofailed00
udp://bt.xxx-tracker.com:2710/announce10 months agofailed00
udp://glotorrents.pw:6969/announce10 months agofailed00
udp://tracker4.piratux.com:6969/announce10 months agofailed00
udp://p4p.arenabg.ch:1337/announce10 months agofailed00
udp://9.rarbg.to:2710/announce10 months agosuccess00



Torrent File Content (6 files)


Fried.Green.Tomatoes.1991.EXTENDED.1080p.BluRay.H264.AAC-RARBG
     Fried.Green.Tomatoes.1991.EXTENDED.1080p.BluRay.H264.AAC-RARBG.mp4 -
2.6 GB

     Fried.Green.Tomatoes.1991.EXTENDED.1080p.BluRay.H264.AAC-RARBG.nfo -
3.8 KB

     RARBG.COM.mp4 -
992.93 KB

     RARBG.COM.txt -
34 bytes

    Subs
          English-SDH.srt -
129.56 KB

          English.srt -
115.51 KB



Description



 							
https://rarbg.to
Fried.Green.Tomatoes.1991.EXTENDED.1080p.BluRay.H264.AAC-RARBG

image
Screens :

image

image

image

image

image
Mediainfo :

Video
ID : 1
Format : AVC
Format/Info : Advanced Video Codec
Format profile : [email protected]
Format settings, CABAC : Yes
Format settings, ReFrames : 4 frames
Codec ID : avc1
Codec ID/Info : Advanced Video Coding
Duration : 2h 16mn
Bit rate : 2 500 Kbps
Width : 1 920 pixels
Height : 1 080 pixels
Display aspect ratio : 16:9
Frame rate mode : Constant
Frame rate : 23.976 fps
Color space : YUV
Chroma subsampling : 4:2:0
Bit depth : 8 bits
Scan type : Progressive
Bits/(Pixel*Frame) : 0.050
Stream size : 2.38 GiB (92%)
Writing library : x264 core 148 r2638M 7599210
Encoding settings : cabac=1 / ref=4 / deblock=1:-1:-1 / analyse=0x3:0x113 / me=umh / subme=9 / psy=1 / psy_rd=1.00:0.15 / mixed_ref=1 / me_range=24 / chroma_me=1 / trellis=2 / 8x8dct=1 / cqm=0 / deadzone=21,11 / fast_pskip=1 / chroma_qp_offset=-3 / threads=32 / lookahead_threads=4 / sliced_threads=0 / nr=0 / decimate=1 / interlaced=0 / bluray_compat=0 / constrained_intra=0 / bframes=3 / b_pyramid=2 / b_adapt=2 / b_bias=0 / direct=3 / weightb=1 / open_gop=0 / weightp=2 / keyint=250 / keyint_min=25 / scenecut=40 / intra_refresh=0 / rc_lookahead=50 / rc=2pass / mbtree=1 / bitrate=2500 / ratetol=1.0 / qcomp=0.60 / qpmin=0 / qpmax=69 / qpstep=4 / cplxblur=20.0 / qblur=0.5 / vbv_maxrate=31250 / vbv_bufsize=31250 / nal_hrd=none / filler=0 / ip_ratio=1.40 / aq=3:1.00
Encoded date : UTC 2015-12-02 21:38:46
Tagged date : UTC 2015-12-02 21:38:46

Audio
ID : 2
Format : AAC
Format/Info : Advanced Audio Codec
Format profile : LC
Codec ID : 40
Duration : 2h 16mn
Bit rate mode : Constant
Bit rate : 224 Kbps
Channel(s) : 2 channels
Channel(s)_Original : 6 channels
Channel positions : Front: L C R, Side: L R, LFE
Sampling rate : 48.0 KHz
Compression mode : Lossy
Stream size : 219 MiB (8%)
Language : English
Encoded date : UTC 2015-12-02 21:38:46
Tagged date : UTC 2015-12-02 21:38:46




Related torrents

Torrent NameAddedSizeSeedLeechHealth
1 Year+ - in Other1.65 GB00
1 Year+ - in Other2.24 GB04
11 months ago - in Other1.82 GB00
1 Year+ - in Movies11 GB02
1 Year+ - in Movies10.93 GB02

Note :

Feel free to post any comments about this torrent, including links to Subtitle, samples, screenshots, or any other relevant information. Watch Fried Green Tomatoes 1991 EXTENDED 1080p BluRay H264 AAC-RARBG Free Movies Online, Like 123Movies, Fmovies, Putlockers, Popcorntime, Netflix or Direct Download Fried Green Tomatoes 1991 EXTENDED 1080p BluRay H264 AAC-RARBG via Magnet Link.

Comments (0 Comments)




Please login or create a FREE account to post comments

Latest Searches