God Of Gamblers [1989] (Eng Dubbed)-AKHiUgO


    Seeders : 16      Leechers : 41

Warning! Please Download Torrents with a VPN.
Your IP Address is 3.85.143.239.   And Location is United States, East Elmhurst
Your Internet Service Provider and Government can track your Online Activity!  Protect yourself from expensive lawsuits and fines NOW!
We Strongly Recommend Using FREE VPN for P2P to Anonymize your Torrenting.

Note :

Please Update (Trackers Info) Before Start Torrents Downloading to See Updated Seeders And Leechers for Batter Download Speed.

Trackers List

Tracker NameLast CheckStatusSeedersLeechers



Torrent File Content (2 files)


God Of Gamblers-AKHiUgO [H33T]
     God Of Gamblers [1989]-AKHiUgO.avi -
1.37 GB

     tracked_by_h33t_com.txt -
23 bytes



Description



God Of Gamblers [1989] (Eng Dubbed)-AKHiUgO

Cover

Do San (the God of gamblers) is a legendary gambler helped by his supernatural abilities. He undertakes to help a friend pay a debt by beating his friend's advisory at the card table. Despite being assigned a bodyguard Do San has a freak accident which leaves him with partial memory loss and at a mental stage of a child. The small time hustler Knife, his side-kick and his girl friend, being responsible for the accident takes care of the retarded Do San. After some time they discover that he has not lost all of his powers and takes him on a round at the local gambling halls. After being chased by both Knife's loan-shark and enemies closer to the home of Do San, a final showdown at the card tables may take place.


General
Format/Info : Audio Video Interleave
File size : 1.37 GiB
Duration : 2h 0mn
Overall bit rate : 1 621 Kbps

Video
Format : MPEG-4 Visual
Codec ID/Hint : XviD
Duration : 2h 0mn
Bit rate : 1 435 Kbps
Width : 592 pixels
Height : 448 pixels
Display aspect ratio : 4/3
Frame rate : 25.000 fps
Resolution : 24 bits
Colorimetry : 4:2:0
Scan type : Progressive
Bits/(Pixel*Frame) : 0.216
Stream size : 1.21 GiB (89%)

Audio
Format : MP3
Duration : 2h 0mn
Bit rate mode : Variable
Bit rate : 173 Kbps
Minimum bit rate : 192 Kbps
Channel(s) : 2 channels
Sampling rate : 48.0 KHz
Resolution : 16 bits
Stream size : 149 MiB (11%)
Encoding settings : ABR
Language : English


Screen1

Screen2

Screen3


PLEASE HELP YOUR FELLOW PIRATES BY SEEDING AFTER DOWNLOAD!

Related torrents

Torrent NameAddedSizeSeedLeechHealth
6 months ago - in Movies2.58 GB00
1 Year+ - in Movies1.33 GB00
1 Year+ - in Movies2.2 GB22
1 Year+ - in Other12.29 GB12
1 Year+ - in Movies1.11 GB00

Note :

Feel free to post any comments about this torrent, including links to Subtitle, samples, screenshots, or any other relevant information. Please Dont Download anything from Comments And Links to Streaming Sites like Watch Online God Of Gamblers [1989] (Eng Dubbed)-AKHiUgO Full Movie free etc.

Comments (0 Comments)




Please login or create a FREE account to post comments

Latest Searches