Green Street Hooligans 2 (2009) DVDr Nl Subs Nlt Release


    Seeders : 4      Leechers : 4

Hash :D54F4BBA884E137E3B094453CAEA229EAA594752
Added :1 Year+ in Movies
Size :903.29 MB
Stream :Watch FREE Full Movies @ Movie4u


Green Street Hooligans 2 (2009) DVDr Nl Subs Nlt Release
Fast And Direct Download Safely! And Anonymously!









Note :

Please Update (Trackers Info) Before Start Torrents Downloading to See Updated Seeders And Leechers for Batter Download Speed.

Trackers List

Tracker NameLast CheckStatusSeedersLeechers



Torrent File Content (5 files)


Green Street Hooligans 2 (2009) DVDr Nl Subs Nlt Release
     Cover.jpg -
15.44 KB

     Green Street Hooligans 2.avi -
903.27 MB

     Important! Torrent Created by Zero Yuy.txt -
360 bytes

     Media Info.txt -
1.51 KB

     Torrent_downloaded_from_Demonoid.com.txt -
47 bytes



Description



Brought to you By Nlt Release @

http://nlt.ons-forum.nl



http://www.moviemeter.nl/film/55528

Verenigde Staten
Drama
94 minuten

geregisseerd door Jesse V. Johnson
met Ross McCall, Marina Sirtis en Timothy V. Murphy

Na de uit de hand gelopen rel met fatale afloop tussen de Hooligans van West Ham United en Millwall komen een groot deel van beide supporterskernen in de gevangenis terecht. Tussen de gevangenismuren zijn de aanhangers van Millwall in de meerderheid en die van West Ham worden dan ook constant aangevallen. Ook in de gevangenis wordt het voetbal fanatiek gevolgd en er worden zelfs wedstrijden gespeeld. Winst of verlies maakt het verschil tussen een beloning of een straf. Wanneer door overbevolking enkele gelukkigen kans maken op vervroegde vrijlating staan de hooligans van West Ham en Millwall weer tegenover elkaar. Deze keer echter op een voetbalveld. De inzet is hoog als een doelpunt je vrijheid kan betekenen.

Video Info:

General
Format : AVI
Format/Info : Audio Video Interleave
File size : 903 MiB
Duration : 1h 34mn
Overall bit rate : 1 341 Kbps
Writing application : Lavf51.12.1

Video
Format : xvid
Codec ID : xvid
Duration : 1h 34mn
Bit rate : 1 201 Kbps
Width : 720 pixels
Height : 480 pixels
Display aspect ratio : 1.500
Frame rate : 23.976 fps
Standard : NTSC
Resolution : 24 bits
Bits/(Pixel*Frame) : 0.145
Stream size : 809 MiB (90%)

Audio
Format : MPEG Audio
Format version : Version 1
Format profile : Layer 3
Codec ID : 55
Codec ID/Hint : MP3
Duration : 1h 34mn
Bit rate mode : Constant
Bit rate : 128 Kbps
Channel(s) : 2 channels
Sampling rate : 48.0 KHz
Resolution : 16 bits
Stream size : 86.2 MiB (10%)
Alignment : Aligned on interleaves
Interleave, duration : 24 ms (0.58 video frame)
Interleave, preload duration : 24 ms

Related torrents

Torrent NameAddedSizeSeedLeechHealth
1 Year+ - in Movies791.53 MB4358
1 Year+ - in Other746.44 MB00
1 Year+ - in Other700.06 MB00
1 Year+ - in Other969.18 MB00
1 Year+ - in Movies1.38 GB126

Note :

Feel free to post any comments about this torrent, including links to Subtitle, samples, screenshots, or any other relevant information. Watch Green Street Hooligans 2 (2009) DVDr Nl Subs Nlt Release Free Full Movies Online, Like 123Movies, Fmovies, Putlocker, Netflix or Direct Download Torrent Green Street Hooligans 2 (2009) DVDr Nl Subs Nlt Release via Magnet Link.

Comments (0 Comments)




Please login or create a FREE account to post comments

People Searching