Harry Potter and the Half Blood Prince [TS] [Iod, PSP, Zune Formatted]


    Seeders : 0      Leechers : 0


Please Turn on your VPN before Downloading Torrents.
Your IP Address is 18.207.136.184.   And Location United States, Ashburn
Your Internet Service Provider and Government can track your Online Activity!  Protect yourself from expensive lawsuits and fines NOW!
We Strongly Recommend Using Very Cheap VPN for P2P to Anonymize your Torrenting.

Note :

Please Update (Trackers Info) Before Start Torrents Downloading to See Updated Seeders And Leechers for Batter Download Speed.

Trackers List

Tracker NameLast CheckStatusSeedersLeechers
http://tracker.internetwarriors.net:1337/announce1 Year+failed00
http://tracko.appspot.com/announce1 Year+success00
udp://tracker.trackerfix.com:80/announce1 Year+success00
udp://glotorrents.pw:6969/announce1 Year+success00
udp://tracker.blackunicorn.xyz:6969/announce1 Year+success00
http://apps.dunnsearch.org/announce1 Year+success00
udp://p4p.arenabg.ch:1337/announce1 Year+success00
udp://9.rarbg.to:2710/announce1 Year+success00
udp://tracker.opentrackr.org:1337/announce1 Year+success00
udp://tracker.tiny-vps.com:6969/announce1 Year+success00
udp://tracker.internetwarriors.net:1337/announce1 Year+success00
udp://tracker.sktorrent.net:6969/announce1 Year+success00
http://tracker.podtropolis.com:2710/announce1 Year+success00
udp://mgtracker.org:6969/announce1 Year+success00
udp://tracker.mgtracker.org:2710/announce1 Year+success00
http://tracker.opentrackr.org/announce1 Year+success00
udp://tracker.zer0day.to:1337/announce1 Year+success00
udp://tracker.vanitycore.co:6969/announce1 Year+success00
udp://tracker.pirateparty.gr:6969/announce1 Year+success00
udp://public.popcorn-tracker.org:6969/announce1 Year+success00
udp://tracker.cypherpunks.ru:6969/announce1 Year+success00
udp://inferno.demonoid.pw:3418/announce1 Year+success00
udp://asnet.pw:2710/announce1 Year+success00
http://mgtracker.org:2710/announce1 Year+success00
http://tracker.publicbt.com/announce1 Year+success00
udp://tracker.ccc.de:80/announce1 Year+success00
udp://tracker.publicbt.com:80/announce1 Year+success00
udp://tracker.openbittorrent.com:80/announce1 Year+success00
udp://tracker.istole.it:80/announce1 Year+success00
udp://9.rarbg.me:2710/announce1 Year+success00
http://tracker.trackerfix.com/announce1 Year+success00
udp://tracker.leechers-paradise.org:6969/announce1 Year+success00
udp://tracker.torrentbox.com:2710/announce1 Year+success00
udp://tracker.coppersurfer.tk:6969/announce1 Year+success00
udp://castradio.net:6969/announce1 Year+success00
http://tracker2.wasabii.com.tw:6969/announce1 Year+success00
http://tracker.torrentbox.com:2710/announce1 Year+success00
http://www.h33t.com:3310/announce1 Year+success00
http://www.torrentsnipe.info:2701/announce1 Year+success00
http://tracker.mightynova.com:4315/announce1 Year+success00
http://torrent-downloads.to:5869/announce1 Year+success00
udp://shadowshq.yi.org:6969/announce1 Year+success00
udp://explodie.org:6969/announce1 Year+success00
udp://eddie4.nl:6969/announce1 Year+success00
udp://inferno.demonoid.com:3418/announce1 Year+success00
http://inferno.demonoid.com:3418/announce1 Year+success00



Torrent File Content (3 files)


Harry Potter and the Half Blood Prince [TS] [Iod, PSP, Zune Formatted]
     Harry Potter and the Half Blood Prince.mp4 -
890.11 MB

     Another great torrent!.txt -
122 bytes

     Torrent downloaded from Demonoid.com.txt -
47 bytes



Description



????????
???? /?/
????/?/
??? /?/????
?????|????
??????-??? ??BloodyRoses??
?????????? ? ? ? ? ? ? ? ?? ? ? ? ? ? ?
??????????
????????



Title: Harry Potter and the Half Blood Prince [TS] [Ipod, PSP, Zune Formatted]

*Tested*
Tested on Ipod Touch 2nd gen 32gb and Ipod Classic 80Gb

Converting any Movies, TV shows, Music Videos, Music ect please post your request in the comments.

-----------------------------------------------------------------------------------

Do you want to host my file on your website? Want your tracker added to my torrents? Just post your tracker in the comments and I will add it to all of the torrents I release.

-----------------------------------------------------------------------------------

If you found something in any of my Torrents, consider that it may be a false positive and if you are sure please report it to me first.

Report Bad Torrents Here:
http://forum.suprbay.org/forumdisplay.php?fid=29

Please Leave A Comment

-----------------------------------------------------------------------------------


Format : MPEG-4
Format profile : Base Media
Codec ID : isom
File size : 890 MiB
Duration : 2h 18mn
Overall bit rate : 900 Kbps
Movie name : Harry Potter and the Half Blood Prince
Encoded date : UTC 2009-08-28 14:13:08
Tagged date : UTC 2009-08-28 14:13:08
Writing application : Lavf52.31.0

Video
ID : 1
Format : AVC
Format/Info : Advanced Video Codec
Format profile : [email protected]
Format settings, CABAC : No
Format settings, ReFrames : 3 frames
Codec ID : avc1
Codec ID/Info : Advanced Video Coding
Duration : 2h 18mn
Bit rate mode : Variable
Bit rate : 767 Kbps
Width : 480 pixels
Height : 198 pixels
Display aspect ratio : 2.40:1
Frame rate mode : Variable
Frame rate : 25.000 fps
Minimum frame rate : 8.333 fps
Maximum frame rate : 25.000 fps
Resolution : 24 bits
Colorimetry : 4:2:0
Scan type : Progressive
Bits/(Pixel*Frame) : 0.323
Stream size : 759 MiB (85%)
Encoded date : UTC 2009-08-28 14:13:08
Tagged date : UTC 2009-08-28 14:13:08

Audio
ID : 2
Format : AAC
Format/Info : Advanced Audio Codec
Format version : Version 4
Format profile : LC
Format settings, SBR : No
Codec ID : 40
Duration : 2h 18mn
Bit rate mode : Variable
Bit rate : 128 Kbps
Channel(s) : 2 channels
Channel positions : L R
Sampling rate : 44.1 KHz
Resolution : 16 bits
Stream size : 127 MiB (14%)
Encoded date : UTC 2009-08-28 14:13:08
Tagged date : UTC 2009-08-28 14:13:08

Related torrents

Torrent NameAddedSizeSeedLeechHealth
1 Year+ - in Movies94 bytes40
1 Year+ - in Movies18.75 KB2392
1 Year+ - in Movies1.38 GB18263
1 Year+ - in Movies1.38 GB15325
1 Year+ - in Movies14.87 KB00

Note :

Feel free to post any comments about this torrent, including links to Subtitle, samples, screenshots, or any other relevant information. Watch Harry Potter and the Half Blood Prince [TS] [Iod, PSP, Zune Formatted] Free Movies Online, Like 123Movies, Fmovies, Putlockers, Popcorntime, Netflix or Direct Download Harry Potter and the Half Blood Prince [TS] [Iod, PSP, Zune Formatted] via Magnet Link.

Comments (0 Comments)




Please login or create a FREE account to post comments

Latest Searches