Impact.2008.R5.DVDRIP.XviD-ZEKTORM


    Seeders : 0      Leechers : 0

Torrent Hash :3E1C353BA6506383440A83BD0EFF4FD8CF6477F7
Torrent Added :1 Year+ in Movies
Torrent Size :701.78 MB
VPN :Download torrent Safely and Anonymously with Cheap VPN : Get VPN NOW


Impact.2008.R5.DVDRIP.XviD-ZEKTORM
Fast And Direct Download Safely And Anonymously!










Note :

Please Update (Trackers Info) Before Start "Impact.2008.R5.DVDRIP.XviD-ZEKTORM" Torrent Downloading to See Updated Seeders And Leechers for Batter Torrent Download Speed.

Trackers List

Tracker NameLast CheckStatusSeedersLeechers



Torrent File Content (2 files)


Impact.2008.R5.DVDRIP.XviD-ZEKTORM
     Impact.2008.DVDRIP.XviD-ZEKTORM.avi -
701.76 MB

     READ.hlp -
11.42 KB



Description



Title                            : "Impact"
Year : 2008
Genre : Action | Adventure | Sci-Fi
iMDB URL : http://www.imdb.com/title/tt1227637/

Complete name : Impact.2008.DVDRIP.XviD-ZEKTORM.avi
Format : AVI
File size : 702 MiB
Duration : 1h 30mn
Overall bit rate : 1085 Kbps
Source : DVD PAL R5

Video
Format : MPEG-4 Visual
Format profile : Streaming [email protected]
Codec ID : DX50
Codec ID/Hint : DivX 5
Duration : 1h 30mn
Bit rate : 950 Kbps
Width : 1024 pixels
Height : 576 pixels
Display aspect ratio : 16/9
Frame rate : 25.000 fps
Resolution : 24 bits
Colorimetry : 4:2:0
Scan type : Progressive
Bits/(Pixel*Frame) : 0.064
Stream size : 614 MiB (88%)
Writing library : XviD

Audio
Format : MPEG Audio
Format version : Version 1
Format profile : Layer 3
Codec ID : 55
Codec ID/Hint : MP3
Duration : 1h 30mn
Bit rate mode : Constant
Bit rate : 128 Kbps
Minimum bit rate : 128 Kbps
Channel(s) : 2 channels
Sampling rate : 48.0 KHz
Resolution : 16 bits
Stream size : 82.8 MiB (12%)
Writing library : LAME3.98r
Encoding settings : CBR

Related torrents

Torrent NameAddedSizeSeedLeechHealth
1 Year+ - in Movies701.97 MB111456
1 Year+ - in Movies701.79 MB1312
1 Year+ - in TV shows4.89 GB00
1 Year+ - in Movies2.88 GB17
1 Year+ - in Movies8.46 GB29

Note :

Feel free to post any comments about this torrent, including links to Subtitle, samples, screenshots, or any other relevant information. Watch Impact.2008.R5.DVDRIP.XviD-ZEKTORM Full Movie Online Free, Like 123Movies, FMovies, Putlocker, Netflix or Direct Download Torrent Impact.2008.R5.DVDRIP.XviD-ZEKTORM via Magnet Download Link.

Comments (0 Comments)




Please login or create a FREE account to post comments

People Searches