Infestation-AC3-5,1-DVDRip[Eng]2009


    Seeders : 0      Leechers : 79

Hash :4478412BB108D340A6627782C55ED5310AD7B73A
Added :1 Year+ in Movies
Size :1.24 GB
Stream :Watch FREE Full Movies @ Movie4u


Infestation-AC3-5,1-DVDRip[Eng]2009
Download your torrents safely! And Anonymously!








Please Turn on your VPN before Downloading Torrents.
Your IP Address is 3.229.122.166.   And Location United States,
Your Internet Service Provider and Government can track your Online Activity!  Protect yourself from expensive lawsuits and fines NOW!
We Strongly Recommend Using Very Cheap VPN for P2P to Anonymize your Torrenting.

Note :

Please Update (Trackers Info) Before Start Torrents Downloading to See Updated Seeders And Leechers for Batter Download Speed.

Trackers List

Tracker NameLast CheckStatusSeedersLeechers



Torrent File Content (3 files)


Infestation-AC3-5,1-DVDRip[Eng]2009
     Infestation-AC3-5,1-DVDRip[Eng]2009.avi -
1.24 GB

     Infestation-AC3-5,1-DVDRip[Eng]2009.txt -
2.45 KB

     Torrent downloaded from Demonoid.com.txt -
47 bytes



Description



http://www.imdb.com/title/tt1020543/

User Rating:6.5/10 - 941 votes

Action,Comedy,Horror

Director:Kyle Rankin

Cast:Diane Gaeta/Deborah Geffner/VJ Kewl/Chris Marquette, and others.

Plot:
A slacker awakes to find himself weak and wrapped in a webbing; after realizing that the world has been taken over by giant alien
insects, he wakes a ragtag group of strangers and together they fight for survival...

Info:

General
Complete name : Infestation-AC3-5,1-DVDRip[Eng]2009.avi
Format : AVI
Format/Info : Audio Video Interleave
File size : 1.24 GiB
Duration : 1h 31mn
Overall bit rate : 1 953 Kbps
Writing application : VirtualDubMod 1.5.4.1 (build 2178/release)
Writing library : VirtualDubMod build 2178/release

Video
Format : MPEG-4 Visual
Format profile : [email protected]
Format settings, BVOP : No
Format settings, QPel : No
Format settings, GMC : No warppoints
Format settings, Matrix : Default
Codec ID : XVID
Codec ID/Hint : XviD
Duration : 1h 31mn
Bit rate : 1 498 Kbps
Width : 624 pixels
Height : 352 pixels
Display aspect ratio : 16/9
Frame rate : 23.976 fps
Resolution : 24 bits
Colorimetry : 4:2:0
Scan type : Progressive
Bits/(Pixel*Frame) : 0.284
Stream size : 976 MiB (77%)
Writing library : XviD 50

Audio
Format : AC-3
Format/Info : Audio Coding 3
Codec ID : 2000
Duration : 1h 31mn
Bit rate mode : Constant
Bit rate : 448 Kbps
Channel(s) : 6 channels
Channel positions : Front: L C R, Surround: L R, LFE
Sampling rate : 48.0 KHz
Stream size : 292 MiB (23%)
Alignment : Split accross interleaves
Interleave, duration : 83 ms (2.00 video frames)
Interleave, preload duration : 500 ms
Language : English

Enjoy...

Related torrents

Torrent NameAddedSizeSeedLeechHealth
1 Year+ - in Movies1020.68 MB1105
1 Year+ - in Movies1.37 GB00
1 Year+ - in Movies1.36 GB63
1 Year+ - in Movies1.37 GB2075
1 Year+ - in Movies1.07 GB1969

Note :

Feel free to post any comments about this torrent, including links to Subtitle, samples, screenshots, or any other relevant information. Watch Infestation-AC3-5,1-DVDRip[Eng]2009 Free Movies Online, Like 123Movies, Fmovies, Putlockers, Popcorntime, Netflix or Direct Download Infestation-AC3-5,1-DVDRip[Eng]2009 via Magnet Link.

Comments (0 Comments)




Please login or create a FREE account to post comments

Latest Searches