Learn the Guitar {purestevil}*Exclusive* Release


    Seeders : 0      Leechers : 2

Warning! Please Download Torrents with a VPN.
Your IP Address is 54.226.4.91.   And Location is United States, Ashburn
Your Internet Service Provider and Government can track your Online Activity!  Protect yourself from expensive lawsuits and fines NOW!
We Strongly Recommend Using FREE VPN for P2P to Anonymize your Torrenting.

Note :

Please Update (Trackers Info) Before Start Torrents Downloading to See Updated Seeders And Leechers for Batter Download Speed.

Trackers List

Tracker NameLast CheckStatusSeedersLeechers



Torrent File Content (2 files)


Learn the guitar {purestevil}exclusive
     guitar (2).mp4 -
152.23 MB

     tracked_by_h33t_com.txt -
23 bytes



Description



Learn To Play Basics On Guitar {acoustic} {purestevil} Exclusive Release

Best played on Sony az and nw series music players. (320x240 format)


About the Video:
Learn to play without reading music! This box set includes a 64-page full-colour book and DVD with expert tuition to guide you from the basics for beginners, through to understanding chord tablature and chord progressions for more experienced players

File Information:

Format : MPEG-4
Format profile : Base Media / Version 2
Codec ID : mp42
File size : 152 MiB
Duration : 47mn 46s
Overall bit rate : 445 Kbps
Encoded date : UTC 2009-08-09 13:13:56
Tagged date : UTC 2009-08-09 13:14:45
Writing application : mp4creator 1.6.1d

Video
ID : 1
Format : MPEG-4 Visual
Format profile : [email protected]
Format settings, BVOP : No
Format settings, QPel : No
Format settings, GMC : No warppoints
Format settings, Matrix : Default (H.263)
Codec ID : 20
Duration : 47mn 46s
Bit rate mode : Variable
Bit rate : 381 Kbps
Maximum bit rate : 1 017 Kbps
Width : 320 pixels
Height : 240 pixels
Display aspect ratio : 4/3
Frame rate mode : Constant
Frame rate : 18.000 fps
Resolution : 24 bits
Colorimetry : 4:2:0
Scan type : Progressive
Bits/(Pixel*Frame) : 0.276
Stream size : 130 MiB (86%)
Encoded date : UTC 2009-08-09 13:13:56
Tagged date : UTC 2009-08-09 13:14:44

Audio
ID : 2
Format : AAC
Format/Info : Advanced Audio Codec
Format version : Version 4
Format profile : LC
Format settings, SBR : No
Codec ID : 40
Duration : 47mn 46s
Bit rate mode : Variable
Bit rate : 62.8 Kbps
Maximum bit rate : 125 Kbps
Channel(s) : 2 channels
Channel positions : L R
Sampling rate : 22.05 KHz
Resolution : 16 bits
Stream size : 21.5 MiB (14%)
Encoded date : UTC 2009-08-09 13:14:44
Tagged date : UTC 2009-08-09 13:14:45

Related torrents

Torrent NameAddedSizeSeedLeechHealth
1 Year+ - in Music871.06 MB248
3 months ago - in Movies1.04 GB00
1 Year+ - in Other4.77 GB141
1 Year+ - in Other9.15 MB00
1 Year+ - in Other236.82 KB00

Note :

Feel free to post any comments about this torrent, including links to Subtitle, samples, screenshots, or any other relevant information. Please Dont Download anything from Comments And Links to Streaming Sites like Watch Online Learn the Guitar {purestevil}*Exclusive* Release Full Movie free etc.

Comments (0 Comments)




Please login or create a FREE account to post comments

Latest Searches