Liverpool [2008] LIMITED DVDRip[+Eng Subs] XviD-AEN


    Seeders : 4      Leechers : 6

Warning! Please Download Torrents with a VPN.
Your IP Address is 34.229.151.87.   And Location is United States, Ashburn
Your Internet Service Provider and Government can track your Online Activity!  Protect yourself from expensive lawsuits and fines NOW!
We Strongly Recommend Using Best Cheapest VPN to Anonymize your Torrenting.

Note :

Please Update (Trackers Info) Before Start Torrents Downloading to See Updated Seeders And Leechers for Batter Download Speed.

Trackers List

Tracker NameLast CheckStatusSeedersLeechers



Torrent File Content (8 files)


Liverpool [2008] LIMITED DVDRip[+Eng.Subs] XviD-AEN
    aen-liverpool-subs
          liverpool.2008.limited.dvdrip.xvid-aen.idx -
20.47 KB

          liverpool.2008.limited.dvdrip.xvid-aen.rar -
164.91 KB

     aen-liverpool-sample.avi -
7.85 MB

     aen-liverpool.nfo -
22.67 KB

     INVITATION!!!.txt -
8.74 KB

     liverpool.2008.limited.dvdrip.xvid-aen.avi -
699.65 MB

     Liverpool.jpg -
33.1 KB

     Seedboxes!!!.txt -
223 bytes



Description



Liverpool [2008] LIMITED DVDRip[+Eng Subs] XviD-AEN



General
Complete name                    : Liverpool [2008] LIMITED DVDRip[+Eng.Subs] XviD-AEN.avi
Format                           : AVI
Format/Info                      : Audio Video Interleave
File size                        : 700 MiB
Duration                         : 1h 21mn
Overall bit rate                 : 1 194 Kbps
Writing application              : Nandub v1.0rc2
Writing library                  : Nandub build 1852/release

Video
Format                           : MPEG-4 Visual
Format profile                   : Streaming [email protected]
Format settings, BVOP            : Yes
Format settings, QPel            : No
Format settings, GMC             : No warppoints
Format settings, Matrix          : Default
Codec ID                         : XVID
Codec ID/Hint                    : XviD
Duration                         : 1h 21mn
Bit rate                         : 1 045 Kbps
Width                            : 608 pixels
Height                           : 336 pixels
Display aspect ratio             : 16/9
Frame rate                       : 25.000 fps
Resolution                       : 24 bits
Colorimetry                      : 4:2:0
Scan type                        : Progressive
Bits/(Pixel*Frame)               : 0.205
Stream size                      : 612 MiB (87%)
Writing library                  : XviD 1.2.1 (UTC 2008-12-04)

Audio
Format                           : MPEG Audio
Format version                   : Version 1
Format profile                   : Layer 3
Codec ID                         : 55
Codec ID/Hint                    : MP3
Duration                         : 1h 21mn
Bit rate mode                    : Variable
Bit rate                         : 137 Kbps
Minimum bit rate                 : 138 Kbps
Channel(s)                       : 2 channels
Sampling rate                    : 48.0 KHz
Resolution                       : 16 bits
Stream size                      : 80.0 MiB (11%)
Alignment                        : Aligned on interleaves
Interleave, duration             : 24 ms (0.60 video frame)
Interleave, preload duration     : 129 ms
Writing library                  : LAME3.95 
Encoding settings                : ABR



Nieves Cabrera ... Trujillo
Giselle Irrazabal ... Analía
Juan Fernández ... Farrel



A merchant sailor returns to his home in Tierra del Fuego after spending most of his life at sea.

Related torrents

Torrent NameAddedSizeSeedLeechHealth
1 Year+ - in Movies1.38 GB41
4 months ago - in Other7.95 GB63
5 months ago - in Movies7.94 GB27
6 months ago - in Movies6.56 GB06
6 months ago - in Other1.37 GB00

Note :

Feel free to post any comments about this torrent, including links to Subtitle, samples, screenshots, or any other relevant information. Please Dont Download anything from Comments And Links to Streaming Sites like Watch Online Liverpool [2008] LIMITED DVDRip[+Eng Subs] XviD-AEN Full Movie free etc.

Comments (0 Comments)




Please login or create a FREE account to post comments

Latest Searches