Lost City Raiders-AC3-5,1-DVDRip[Eng]2008


    Seeders : 0      Leechers : 0

Hash :CED18CE45B846D6B53364342217F0758EF3E8841
Added :1 Year+ in Movies
Size :1.39 GB
Stream :Watch FREE Full Movies @ Movie4u


Lost City Raiders-AC3-5,1-DVDRip[Eng]2008
Download your torrents safely! And Anonymously!








Please Turn on your VPN before Downloading Torrents.
Your IP Address is 18.206.16.123.   And Location United States, Ashburn
Your Internet Service Provider and Government can track your Online Activity!  Protect yourself from expensive lawsuits and fines NOW!
We Strongly Recommend Using Very Cheap VPN for P2P to Anonymize your Torrenting.

Note :

Please Update (Trackers Info) Before Start Torrents Downloading to See Updated Seeders And Leechers for Batter Download Speed.

Trackers List

Tracker NameLast CheckStatusSeedersLeechers
udp://tracker.ilibr.org:6969/announce1 Year+success00
http://announce.torrentsmd.com:6969/announce1 Year+failed00
http://9.rarbg.com:2710/announce1 Year+failed00
udp://tracker.coppersurfer.tk:801 Year+success00
udp://open.demonii.com:801 Year+failed00
http://tracker.torrentbox.com:2710/announce1 Year+failed00
udp://inferno.demonoid.com:3390/announce1 Year+success00
http://inferno.demonoid.com:3390/announce1 Year+failed00
udp://tracker.zond.org:80/announce1 Year+failed00
http://bigfoot1942.sektori.org:6969/announce1 Year+success00
http://tracker.best-torrents.net:6969/announce1 Year+failed00
http://torrent.gresille.org/announce1 Year+failed00
http://tracker4.finalgear.com/announce1 Year+failed00
http://open.seed-it.org:6969/announce1 Year+failed00
http://www.genesis-sp.org:2710/announce1 Year+failed00
http://torrent-tracker.ru/announce.php1 Year+failed00
udp://tracker.btzoo.eu:80/announce1 Year+failed00
http://tracker.winglai.com/announce1 Year+failed00
http://tracker.windsormetalbattery.com/announce1 Year+failed00
udp://tracker.istole.it:80/announce1 Year+failed00
http://tracker.publicbt.com/announce1 Year+failed00
http://10.rarbg.com/announce1 Year+failed00
http://tracker.ilibr.org:6969/announce1 Year+failed00
udp://tracker.token.ro:80/announce1 Year+failed00
udp://tracker.ccc.de:80/announce1 Year+failed00
udp://open.demonii.com:1337/announce1 Year+failed00
udp://tracker.publicbt.com:80/announce1 Year+failed00
udp://tracker.openbittorrent.com:80/announce1 Year+failed00
udp://tracker.torrentbox.com:2710/announce1 Year+failed00
udp://ipv4.tracker.harry.lu:80/announce1 Year+success00
udp://9.rarbg.com:2710/announce1 Year+success00
http://tracker.trackerfix.com/announce1 Year+success00
http://fr33dom.h33t.com:3310/announce1 Year+failed00
udp://10.rarbg.me:80/announce1 Year+failed00
http://tracker.nwps.ws:6969/announce1 Year+success00
http://exodus.desync.com:6969/announce1 Year+failed00
http://tracker.thepiratebay.org/announce1 Year+failed00



Torrent File Content (3 files)


Lost City Raiders-AC3-5,1-DVDRip[Eng]2008
     Lost City Raiders-AC3-5,1-DVDRip[Eng]2008.avi -
1.39 GB

     Lost City Raiders-AC3-5,1-DVDRip[Eng]2008.txt -
2.52 KB

     Torrent downloaded from Demonoid.com.txt -
47 bytes



Description



http://www.imdb.com/title/tt1198403/

User Rating:4.1/10 - 530 votes

Adventure,Sci-Fi

Director:Jean de Segonzac

Cast:James Brolin/Ian Somerhalder/Bettina Zimmermann, and others.

Plot:
The year is 2048, and global warming has flooded much of Earth's land areas. A father and his two sons try to salvage treasures from
sunken buildings when they are given an important assignment by the New Vatican........

Info:

General
Complete name : Lost City Raiders-AC3-5,1-DVDRip[Eng]2008.avi
Format : AVI
Format/Info : Audio Video Interleave
File size : 1.39 GiB
Duration : 1h 37mn
Overall bit rate : 2 036 Kbps
Writing application : VirtualDubMod 1.5.4.1 (build 2178/release)
Writing library : VirtualDubMod build 2178/release

Video
Format : MPEG-4 Visual
Format profile : Streaming [email protected]
Format settings, BVOP : Yes
Format settings, QPel : No
Format settings, GMC : No warppoints
Format settings, Matrix : Default
Muxing mode : Packed bitstream
Codec ID : XVID
Codec ID/Hint : XviD
Duration : 1h 37mn
Bit rate : 1 581 Kbps
Width : 704 pixels
Height : 400 pixels
Display aspect ratio : 16/9
Frame rate : 25.000 fps
Resolution : 24 bits
Colorimetry : 4:2:0
Scan type : Progressive
Bits/(Pixel*Frame) : 0.225
Stream size : 1.08 GiB (78%)
Writing library : XviD 50

Audio
Format : AC-3
Format/Info : Audio Coding 3
Codec ID : 2000
Duration : 1h 37mn
Bit rate mode : Constant
Bit rate : 448 Kbps
Channel(s) : 6 channels
Channel positions : Front: L C R, Surround: L R, LFE
Sampling rate : 48.0 KHz
Stream size : 313 MiB (22%)
Alignment : Split accross interleaves
Interleave, duration : 80 ms (2.00 video frames)
Interleave, preload duration : 500 ms
Language : English

Enjoy....

Related torrents

Torrent NameAddedSizeSeedLeechHealth
1 Year+ - in Movies1.46 GB01
1 Year+ - in Movies4.69 GB10
1 Year+ - in Movies692.24 MB11
1 Year+ - in Movies4 GB01
1 Year+ - in Movies2.72 GB62

Note :

Feel free to post any comments about this torrent, including links to Subtitle, samples, screenshots, or any other relevant information. Watch Lost City Raiders-AC3-5,1-DVDRip[Eng]2008 Free Movies Online, Like 123Movies, Fmovies, Putlockers, Popcorntime, Netflix or Direct Download Lost City Raiders-AC3-5,1-DVDRip[Eng]2008 via Magnet Link.

Comments (0 Comments)




Please login or create a FREE account to post comments

Latest Searches