Magnus Betner Tal Till Nationen 2009 SWEDISH DVDRip XviD-KickFoot


    Seeders : 0      Leechers : 65

Warning! Please Download Torrents with a VPN.
Your IP Address is 107.23.129.77.   And Location is United States, Ashburn
Your Internet Service Provider and Government can track your Online Activity!  Protect yourself from expensive lawsuits and fines NOW!
We Strongly Recommend Using FREE VPN for P2P to Anonymize your Torrenting.

Note :

Please Update (Trackers Info) Before Start Torrents Downloading to See Updated Seeders And Leechers for Batter Download Speed.

Trackers List

Tracker NameLast CheckStatusSeedersLeechers



Torrent File Content (5 files)


Magnus.Betner.Tal.Till.Nationen.2009.SWEDISH.DVDRip.XviD-KickFoot
     Magnus.Betner.Tal.Till.Nationen.2009.SWEDISH.DVDRip.XviD-KickFoot.avi -
699.76 MB

     76125.jpg -
161.5 KB

     HightopperMovie.jpg -
16.07 KB

     FFLogo_theatre.jpg -
13.37 KB

     Filmfix.se.txt -
4.5 KB



Description



Den vanligaste frågan man får som standupkomiker är
"Hur vågar du?". Sanningen är att det inte är så svårt
att göra standup. Man ser bara till att skriva ner
alla roliga saker som man kommer på. Sen går man upp
på en scen och säger det till en publik.

Varför lyckas inte alla då?

Jo, problemet är att folk ofta hänger upp sig på hur
deras skämt tas emot. Och det är där det blir knepigt.
Om man bryr sig om vad en publik bestående av en svensexa
och några halvpackade butiksbiträden från H&M tycker om
ens senaste skämt då blir det svårt. För då börjar man
försöka anpassa sitt material för att tillfredsställa
en tänkbar publik och då är man ute på tunn is.
Tricket är att skita i om folk gillar det eller
inte och våga lita på sin inre kompass. "Jag tycker
att det här är kul och förr eller senare kommer ni
att tycka det också!" Och det kan vara svårt att göra
när man står framför 200 tomma ansikten och har
36 minuter kvar att fylla innan Johan Glans ska
introduceras. Men det är vissa som klarar av det.
Som vågar lita på sina egna idéer så pass länge att
plötsligt så stämmer deras känsla med restan av publikens.
Och plötsligt så funkar det. Och äkta skratt uppstår.
Och det är det som skiljer riktiga komiker från reseledare.
Magnus Betnér har alltid vågat skita i vad folk tycker
och det har gjort honom till en av vår tids allra bästa
och roligaste komiker. För han vet att det egentligen
inte är så svårt
om man bara vågar. Och det gör han

Format : AVI
Format/Info : Audio Video Interleave
File size : 700 MiB
Duration : 1h 30mn
Overall bit rate : 1 086 Kbps
Writing application : FairUse Wizard - http://fairusewizard.com
Writing library : The best and REALLY easy backup tool

Video
ID : 0
Format : MPEG-4 Visual
Format profile : [email protected]
Format settings, BVOP : Yes
Format settings, QPel : No
Format settings, GMC : No warppoints
Format settings, Matrix : Default (MPEG)
Muxing mode : Packed bitstream
Codec ID : XVID
Codec ID/Hint : XviD
Duration : 1h 30mn
Bit rate : 948 Kbps
Width : 608 pixels
Height : 336 pixels
Display aspect ratio : 16:9
Frame rate : 25.000 fps
Resolution : 24 bits
Colorimetry : 4:2:0
Scan type : Progressive
Bits/(Pixel*Frame) : 0.186
Stream size : 611 MiB (87%)
Writing library : XviD 1.2.0.dev47 (UTC 2006-11-01)

Audio
ID : 1
Format : MPEG Audio
Format version : Version 1
Format profile : Layer 3
Codec ID : 55
Codec ID/Hint : MP3
Duration : 1h 30mn
Bit rate mode : Constant
Bit rate : 128 Kbps
Channel(s) : 2 channels
Sampling rate : 48.0 KHz
Resolution : 16 bits
Stream size : 82.5 MiB (12%)
Alignment : Aligned on interleaves
Interleave, duration : 40 ms (1.00 video frame)
Interleave, preload duration : 504 ms
Writing library : LAME3.97
Encoding settings : -m j -V 4 -q 2 -lowpass 17 -b 128

Related torrents

Torrent NameAddedSizeSeedLeechHealth
1 Year+ - in Movies7.3 GB197
1 Year+ - in Movies699.83 MB20
1 Year+ - in Movies699.79 MB00
1 Year+ - in Movies1.37 GB22
1 Year+ - in Movies1.36 GB01

Note :

Feel free to post any comments about this torrent, including links to Subtitle, samples, screenshots, or any other relevant information. Please Dont Download anything from Comments And Links to Streaming Sites like Watch Online Magnus Betner Tal Till Nationen 2009 SWEDISH DVDRip XviD-KickFoot Full Movie free etc.

Comments (0 Comments)




Please login or create a FREE account to post comments

Latest Searches