My Sisters Keeper[2009]-WP-DvDScR-LW-[Torrentz]


    Seeders : 478      Leechers : 739

Warning! Please Download Torrents with a VPN.
Your IP Address is 34.204.0.181.   And Location is United States, Ashburn
Your Internet Service Provider and Government can track your Online Activity!  Protect yourself from expensive lawsuits and fines NOW!
We Strongly Recommend Using Best Cheapest VPN to Anonymize your Torrenting.

Note :

Please Update (Trackers Info) Before Start Torrents Downloading to See Updated Seeders And Leechers for Batter Download Speed.

Trackers List

Tracker NameLast CheckStatusSeedersLeechers



Torrent File Content (6 files)


My Sisters Keeper[2009]-WP-DvDScR-LW
    Cover
          MSK-Poster.jpg -
43.84 KB

    Info
          Movie Info.nfo -
4.08 KB

          Movie Info.txt -
2.9 KB

    Movie
          My Sisters Keeper[2009]-WP-DvDScR-LW.mp4 -
1014.78 MB

    Trackers
          Torrent_downloaded_from_Demonoid.com.txt -
47 bytes

          tracked_by_h33t_com.txt -
23 bytes



Description



      ) (`-.                           (` .-') /`           ) (`-.
       ( OO ).                          `.( OO ),'            ( OO ).
      (_/.  _)-.-'),-----. ,--.     ,--./  .--.  .-'),-----.(_/.  _)-.
         `.'  ( OO'  .-.  '|  |.-') |      |  | ( OO'  .-.  '  `.'  /
             /Y   |  | |  ||  | OO )|  |   |  |,/   |  | |  |      /
             _) |  ||  ||  |`-' ||  |.'.|  |_)_) |  ||  |      |
        .'    _) |  | |  (|  '---.'|         |    |  | |  | .'    _)
       /  .'.    `'  '-'  '|      | |   ,'.   |    `'  '-'  '/  .'.  
      '--'   '--'   `-----' `------' '--'   '--'      `-----''--'   '--'


     
ßßßßßßßßßßßßßßßßßßßßßßßßßßßßßßßßßßßßßßßßßßßßßßßßßßßßßßßßßßßßßßßßßßßßßß

                
Û°°°°°°°°°°°°°°°°°°°°°°°°°°°°°°°°°°°°°°Û
                ÛÛ My Sisters Keeper[2009]-WP-DvDScR-LW ÛÛ
                
Û°°°°°°°°°°°°°°°°°°°°°°°°°°°°°°°°°°°°°°Û

File Name    : My Sisters Keeper[2009]-WP-DvDScR-LW
Type         : Movie
Format       : MP4
File Size    : 0.99 GB
Duration     : 01:53:06
Language     : English
Source       : DvD
Subtitles    : None
Genre        : Drama
IMDB Link    : http://www.imdb.com/title/tt1078588/
IMDB Rating  : 7.3/10
IMDB Votes   : 3,517 Votes
    
ÜÜÜÜÜÜÜÜÜÜÜÜÜÜÜÜÜÜÜÜÜÜÜÜÜÜÜÜÜÜÜÜÜÜÜÜÜÜÜÜÜÜÜÜÜÜÜÜÜÜÜÜÜÜÜÜÜÜÜÜÜÜÜÜÜÜÜÜÜÜ
 
                       
Û°°°°°°°°°°°°°°°°°°°°°°°°Û
                       ÛÛ       Video Info       ÛÛ
                       
Û°°°°°°°°°°°°°°°°°°°°°°°°Û

Format                           : MPEG-4 Visual
Format profile                   : [email protected]
Format settings, BVOP            : No
Format settings, QPel            : No
Format settings, GMC             : No warppoints
Format settings, Matrix          : Default (H.263)
Codec ID                         : 20
Duration                         : 1h 53mn
Bit rate mode                    : Constant
Bit rate                         : 1 154 Kbps
Nominal bit rate                 : 1 500 Kbps
Width                            : 640 pixels
Height                           : 320 pixels
Display aspect ratio             : 2.000
Frame rate mode                  : Constant
Frame rate                       : 29.970 fps
Resolution                       : 24 bits
Colorimetry                      : 4:2:0
Scan type                        : Progressive
Bits/(Pixel*Frame)               : 0.188
Stream size                      : 934 MiB (92%)
    
ÜÜÜÜÜÜÜÜÜÜÜÜÜÜÜÜÜÜÜÜÜÜÜÜÜÜÜÜÜÜÜÜÜÜÜÜÜÜÜÜÜÜÜÜÜÜÜÜÜÜÜÜÜÜÜÜÜÜÜÜÜÜÜÜÜÜÜÜÜÜ

                        
Û°°°°°°°°°°°°°°°°°°°°°°°°Û
                        ÛÛ      Sound Info        ÛÛ
                        
Û°°°°°°°°°°°°°°°°°°°°°°°°Û

Format                           : AAC
Format/Info                      : Advanced Audio Codec
Format version                   : Version 4
Format profile                   : LC
Format settings, SBR             : No
Codec ID                         : 40
Duration                         : 1h 53mn
Bit rate mode                    : Constant
Bit rate                         : 96.0 Kbps
Nominal bit rate                 : 48.0 Kbps
Channel(s)                       : 2 channels
Channel positions                : L R
Sampling rate                    : 32.0 KHz
Resolution                       : 16 bits
Stream size                      : 77.7 MiB (8%)
   
ÜÜÜÜÜÜÜÜÜÜÜÜÜÜÜÜÜÜÜÜÜÜÜÜÜÜÜÜÜÜÜÜÜÜÜÜÜÜÜÜÜÜÜÜÜÜÜÜÜÜÜÜÜÜÜÜÜÜÜÜÜÜÜÜÜÜÜÜÜÜ

                         
Û°°°°°°°°°°°°°°°°°°°°°°°°Û
                         ÛÛ          Plot          ÛÛ
                         
Û°°°°°°°°°°°°°°°°°°°°°°°°Û

A former defense attorney (Cameron Diaz) finds 
herself back in the courtroom when she and her 
husband (Jason Patric) get sued for emancipation 
by their teenage daughter, Anna (Abigail Breslin). 
The subsequent trial exposes a shocking family 
secret that tests the limits of parental love -- 
and the boundaries of ethics. Joan Cusack and 
Alec Baldwin round out the cast in this powerful 
drama based on Jodi Picoult's novel.

Starring: Cameron Diaz, Abigail Breslin

Director: Nick Cassavetes
   
ÜÜÜÜÜÜÜÜÜÜÜÜÜÜÜÜÜÜÜÜÜÜÜÜÜÜÜÜÜÜÜÜÜÜÜÜÜÜÜÜÜÜÜÜÜÜÜÜÜÜÜÜÜÜÜÜÜÜÜÜÜÜÜÜÜÜÜÜÜÜ

Related torrents

Torrent NameAddedSizeSeedLeechHealth
1 Year+ - in Movies755.53 MB1,4211,181
1 Year+ - in Movies755.53 MB1,4301,181
1 Year+ - in Movies755.53 MB1,2421,030
1 Year+ - in Movies755.53 MB00
1 Year+ - in Movies755.53 MB1,2581,240

Note :

Feel free to post any comments about this torrent, including links to Subtitle, samples, screenshots, or any other relevant information. Please Dont Download anything from Comments And Links to Streaming Sites like Watch Online My Sisters Keeper[2009]-WP-DvDScR-LW-[Torrentz] Full Movie free etc.

Comments (0 Comments)




Please login or create a FREE account to post comments

Latest Searches