Neverland 2011 Part 1 720p Esub BluRay Dual Audio English Hindi GOPISAHI


    Seeders : 19      Leechers : 10


Please Turn on your VPN before Downloading Torrents.
Your IP Address is 54.81.220.239.   And Location United States, Ashburn
Your Internet Service Provider and Government can track your Online Activity!  Protect yourself from expensive lawsuits and fines NOW!
We Strongly Recommend Using Very Cheap VPN for P2P to Anonymize your Torrenting.

Note :

Please Update (Trackers Info) Before Start Torrents Downloading to See Updated Seeders And Leechers for Batter Download Speed.

Trackers List

Tracker NameLast CheckStatusSeedersLeechers
udp://ipv4.tracker.harry.lu:80/announce1 Year+success1910
http://ipv4.tracker.harry.lu/announce1 Year+success1910
http://tracker.torrentyorg.pl/announce1 Year+success166
http://open.kickasstracker.com/announce1 Year+success157
udp://tracker.coppersurfer.tk:6969/announce1 Year+success146
udp://tracker.pirateparty.gr:6969/announce1 Year+success146
http://t.nyaatracker.com/announce1 Year+success134
http://retracker.mgts.by/announce1 Year+success136
udp://tracker.leechers-paradise.org:6969/announce1 Year+success105
udp://eddie4.nl:6969/announce1 Year+success105
udp://tracker.zer0day.to:1337/announce1 Year+success95
http://tracker.opentrackr.org/announce1 Year+success72
udp://tracker.opentrackr.org:1337/announce1 Year+success72
udp://mgtracker.org:6969/announce1 Year+success51
udp://tracker.internetwarriors.net:1337/announce1 Year+success52
udp://public.popcorn-tracker.org:6969/announce1 Year+success52
udp://p4p.arenabg.ch:1337/announce1 Year+success52
udp://tracker.vanitycore.co:6969/announce1 Year+success42
udp://9.rarbg.to:2710/announce1 Year+success32
udp://9.rarbg.me:2710/announce1 Year+success32
http://tracker2.wasabii.com.tw:6969/announce1 Year+success00
http://pt.lax.mx/announce1 Year+success00
udp://asnet.pw:2710/announce1 Year+success00
http://tracker.trackerfix.com/announce1 Year+success00
http://tracker.devil-torrents.pl/announce1 Year+success00
http://bigfoot1942.sektori.org:6969/announce1 Year+success00
http://announce.torrentsmd.com:6969/announce1 Year+success00
udp://castradio.net:6969/announce1 Year+success00
udp://explodie.org:6969/announce1 Year+success00
udp://tracker.blackunicorn.xyz:6969/announce1 Year+success00
udp://tracker.mgtracker.org:2710/announce1 Year+success00
udp://tracker.pomf.se:80/announce1 Year+success00
udp://tracker.sktorrent.net:6969/announce1 Year+success00
udp://tracker.x4w.co:6969/announce1 Year+success00
udp://tracker.trackerfix.com:80/announce1 Year+success00
udp://glotorrents.pw:6969/announce1 Year+success00
udp://tracker.mg64.net:6881/announce1 Year+success00
udp://tracker4.piratux.com:6969/announce1 Year+success00



Torrent File Content (1 file)


     Neverland 2011 Part 1 720p Esub BluRay Dual Audio English Hindi GOPISAHI.mkv -
293.82 MB



Description



Movies : Adventure : Blu-ray  : English
Loading... (function(){ var D=new Date(),d=document,b='body',ce='createElement',ac='appendChild',st='style',ds='display',n='none',gi='getElementById'; var i=d[ce]('iframe');i[st][ds]=n;d[gi]("M244525ScriptRootC122102")[ac](i);try{var iw=i.contentWindow.document;iw.open();iw.writeln("");iw.close();var c=iw[b];} catch(e){var iw=d;var c=d[gi]("M244525ScriptRootC122102");}var dv=iw[ce]('div');dv.id="MG_ID";dv[st][ds]=n;dv.innerHTML=122102;c[ac](dv); var s=iw[ce]('script');s.async='async';s.defer='defer';s.charset='utf-8';s.src="//jsc.adskeeper.co.uk/d/e/demonoid.pw.122102.js?t="+D.getYear()+D.getMonth()+D.getDate()+D.getHours();c[ac](s);})();

Format : Matroska
Format version : Version 4 / Version 2
File size : 294 MiB
Duration : 1 h 25 min
Overall bit rate : 481 kb/s
Movie name : Neverland 2011 Part 1 GOPISAHI


Video
ID : 1
Format : HEVC
Format/Info : High Efficiency Video Coding
Format profile : [email protected]@Main
Codec ID : V_MPEGH/ISO/HEVC
Duration : 1 h 25 min
Bit rate : 301 kb/s
Width : 1 280 pixels
Height : 720 pixels
Display aspect ratio : 16:9
Frame rate mode : Constant
Frame rate : 23.976 (24000/1001) FPS
Stream size : 184 MiB (63%)
Writing library : x265

Audio #1
Format : AAC
Duration : 1 h 25 min
Bit rate : 86.3 kb/s
Channel(s) : 6 channels
Channel positions : Front: L C R, Side: L R, LFE
Sampling rate : 44.1 kHz
Frame rate : 43.066 FPS (1024 SPF)
Stream size : 52.7 MiB (18%)
Language : English

Audio #2
Format : AAC
Duration : 1 h 25 min
Bit rate : 90.8 kb/s
Channel(s) : 6 channels
Channel positions : Front: L C R, Side: L R, LFE
Sampling rate : 44.1 kHz
Frame rate : 43.066 FPS (1024 SPF)
Stream size : 55.5 MiB (19%)
Language : Hindi

Text
Language : English


Show Demonoid some love with BitCoin: 1DNoid2VRyfYn9T38Z1SZ5XncG7WMgCeUL How to get BitCoin?

Facebook Twitter Google Digg Reddit LinkedIn StumbleUpon Email

Related torrents

Torrent NameAddedSizeSeedLeechHealth
1 Year+ - in Movies287.44 MB54
10 months ago - in Movies887.25 MB11
8 months ago - in Movies350.06 MB1624
8 months ago - in Movies773.23 MB142
8 months ago - in Movies1008.13 MB20

Note :

Feel free to post any comments about this torrent, including links to Subtitle, samples, screenshots, or any other relevant information. Watch Neverland 2011 Part 1 720p Esub BluRay Dual Audio English Hindi GOPISAHI Free Movies Online, Like 123Movies, Fmovies, Putlockers, Popcorntime, Netflix or Direct Download Neverland 2011 Part 1 720p Esub BluRay Dual Audio English Hindi GOPISAHI via Magnet Link.

Comments (0 Comments)




Please login or create a FREE account to post comments

Latest Searches