Nicholas Nickleby 2002 DVDRip XviD AC3-TURG


    Seeders : 0      Leechers : 0

Hash :FF4EEAE384274E56863167D57314757D54399CFE
Added :1 Year+ in Movies
Size :1.37 GB
Stream :Watch FREE Full Movies @ Movie4u


Nicholas Nickleby 2002 DVDRip XviD AC3-TURG
Download your torrents safely! And Anonymously!








Please Turn on your VPN before Downloading Torrents.
Your IP Address is 3.93.75.30.   And Location United States,
Your Internet Service Provider and Government can track your Online Activity!  Protect yourself from expensive lawsuits and fines NOW!
We Strongly Recommend Using Very Cheap VPN for P2P to Anonymize your Torrenting.

Note :

Please Update (Trackers Info) Before Start Torrents Downloading to See Updated Seeders And Leechers for Batter Download Speed.

Trackers List

Tracker NameLast CheckStatusSeedersLeechers
http://tracker.openbittorrent.com/announce1 Year+failed00
http://tracker.publicbt.com/announce1 Year+failed00



Torrent File Content (2 files)


Nicholas.Nickleby.2002.DVDRip.XviD.AC3-TURG
     Nicholas.Nickleby.2002.DVDRip.XviD.AC3-TURG.avi -
1.37 GB

     Nicholas.Nickleby.2002.DVDRip.XviD.AC3-TURG.Sub -
79.46 KB



Description



Nicholas.Nickleby.2002.DVDRip.XviD.AC3-TURG.avi

Caps: http://www.imageresim.com/images/10a417hqw9oxx4sq11ze.jpg

TR-Sub..

General
Complete name : F:\\\\rip\\\\Nicholas.Nickleby.2002.DVDRip.XviD.AC3-TURG\\\\Nicholas.Nickleby.2002.DVDRip.XviD.AC3-TURG.avi
Format : AVI
Format/Info : Audio Video Interleave
File size : 1.37 GiB
Duration : 2h 7mn
Overall bit rate : 1 539 Kbps
Writing application : VirtualDubMod 1.5.4.1 (build 2178/release)
Writing library : VirtualDubMod build 2178/release
Video
Format : MPEG-4 Visual
Format profile : Streaming [email protected]
Format settings, BVOP : Yes
Format settings, QPel : No
Format settings, GMC : No warppoints
Format settings, Matrix : Custom
Codec ID : XVID
Codec ID/Hint : XviD
Duration : 2h 7mn
Bit rate : 1 084 Kbps
Width : 720 pixels
Height : 304 pixels
Display aspect ratio : 2.35
Frame rate : 25.000 fps
Resolution : 24 bits
Colorimetry : 4:2:0
Scan type : Progressive
Bits/(Pixel*Frame) : 0.198
Stream size : 987 MiB (70%)
Writing library : XviD 50
Audio
Format : AC-3
Format/Info : Audio Coding 3
Codec ID : 2000
Duration : 2h 7mn
Bit rate mode : Constant
Bit rate : 448 Kbps
Channel(s) : 6 channels
Channel positions : Front: L C R, Surround: L R, LFE
Sampling rate : 48.0 KHz
Stream size : 408 MiB (29%)
Alignment : Aligned on interleaves
Interleave, duration : 96 ms (2.40 video frames)
Interleave, preload duration : 96 ms
Language : English

Related torrents

Torrent NameAddedSizeSeedLeechHealth
1 Year+ - in Movies1.6 GB10
1 Year+ - in Other1.64 GB00
1 Year+ - in Other1.49 GB00
1 Year+ - in Movies10.93 GB00
1 Year+ - in Movies1.6 GB10

Note :

Feel free to post any comments about this torrent, including links to Subtitle, samples, screenshots, or any other relevant information. Watch Nicholas Nickleby 2002 DVDRip XviD AC3-TURG Free Movies Online, Like 123Movies, Fmovies, Putlockers, Popcorntime, Netflix or Direct Download Nicholas Nickleby 2002 DVDRip XviD AC3-TURG via Magnet Link.

Comments (0 Comments)




Please login or create a FREE account to post comments

Latest Searches