O J Simpson Made in America Part 5 720p HDTV x264-CROOKS[rartv]


    Seeders : 21      Leechers : 46

Hash :CE5A215E8E51694AE4D0E12CA2AC6B3F68DFEA97
Added :1 Year+ in TV shows
Size :2.21 GB
Stream :Watch FREE Full Movies @ Movie4u


O J Simpson Made in America Part 5 720p HDTV x264-CROOKS[rartv]
Download your torrents safely! And Anonymously!








WARNING! Turn on your VPN before downloading Torrents.
Your IP Address is 54.226.102.115.   And Location United States, Ashburn
Your Internet Service Provider and Government can track your Online Activity!  Protect yourself from expensive lawsuits and fines NOW!
We Strongly Recommend Using Very Cheap VPN for P2P to Anonymize your Torrenting.

Note :

Please Update (Trackers Info) Before Start Torrents Downloading to See Updated Seeders And Leechers for Batter Download Speed.

Trackers List

Tracker NameLast CheckStatusSeedersLeechers
udp://9.rarbg.me:2710/announce1 Year+success2131
udp://9.rarbg.to:2710/announce1 Year+success2131
http://tracker.trackerfix.com/announce1 Year+success1839
udp://tracker.trackerfix.com:80/announce1 Year+success1839
udp://tracker.opentrackr.org:1337/announce1 Year+success1146
udp://p4p.arenabg.com:1337/announce1 Year+success422
udp://p4p.arenabg.ch:1337/announce1 Year+success422
udp://tracker.coppersurfer.tk:6969/announce1 Year+success123
udp://tracker.pomf.se:80/announce1 Year+failed00
udp://tracker.internetwarriors.net:1337/announce1 Year+success00
udp://torrent.gresille.org:80/announce1 Year+success00
udp://tracker.blackunicorn.xyz:6969/announce1 Year+failed00
udp://tracker4.piratux.com:6969/announce1 Year+failed00
udp://glotorrents.pw:6969/announce1 Year+failed00
http://tracker.publicbt.com/announce1 Year+failed00
http://explodie.org:6969/announce1 Year+success00
udp://eddie4.nl:6969/announce1 Year+failed00
http://bigfoot1942.sektori.org:6969/announce1 Year+success00
http://tracker.tfile.me/announce1 Year+failed00
udp://tracker.leechers-paradise.org:6969/announce1 Year+failed00
udp://tracker.openbittorrent.com:80/announce1 Year+failed00
udp://tracker.publicbt.com:80/announce1 Year+failed00



Torrent File Content (3 files)


O.J.Simpson.Made.in.America.Part.5.720p.HDTV.x264-CROOKS[rarbg]
     RARBG.com.txt -
34 bytes

     o.j.simpson.made.in.america.part.5.720p.hdtv.x264-crooks.mkv -
2.21 GB

     o.j.simpson.made.in.america.part.5.720p.hdtv.x264-crooks.nfo -
3.15 KB



Description



 							
https://rarbg.to
O.J.Simpson.Made.in.America.Part.5.720p.HDTV.x264-CROOKS[rartv]

image
Screens :

image
Mediainfo :

Video
ID : 1
Format : AVC
Format/Info : Advanced Video Codec
Format profile : [email protected]
Format settings, CABAC : Yes
Format settings, ReFrames : 5 frames
Codec ID : V_MPEG4/ISO/AVC
Duration : 1h 37mn
Bit rate : 2 851 Kbps
Width : 1 280 pixels
Height : 720 pixels
Display aspect ratio : 16:9
Frame rate mode : Constant
Frame rate : 23.976 (24000/1001) fps
Color space : YUV
Chroma subsampling : 4:2:0
Bit depth : 8 bits
Scan type : Progressive
Bits/(Pixel*Frame) : 0.129
Stream size : 1.95 GiB (88%)
Writing library : x264 core 148 r2694 3b70645
Encoding settings : cabac=1 / ref=5 / deblock=1:-2:-2 / analyse=0x3:0x113 / me=umh / subme=8 / psy=1 / psy_rd=1.00:0.00 / mixed_ref=1 / me_range=16 / chroma_me=1 / trellis=1 / 8x8dct=1 / cqm=0 / deadzone=21,11 / fast_pskip=1 / chroma_qp_offset=-2 / threads=12 / lookahead_threads=2 / sliced_threads=0 / nr=0 / decimate=1 / interlaced=0 / bluray_compat=0 / constrained_intra=0 / bframes=3 / b_pyramid=2 / b_adapt=2 / b_bias=0 / direct=3 / weightb=1 / open_gop=0 / weightp=2 / keyint=250 / keyint_min=23 / scenecut=40 / intra_refresh=0 / rc_lookahead=50 / rc=crf / mbtree=1 / crf=20.0 / qcomp=0.60 / qpmin=0 / qpmax=69 / qpstep=4 / ip_ratio=1.40 / aq=1:1.00
Default : Yes
Forced : No
Color range : Limited
Matrix coefficients : BT.709

Audio
ID : 2
Format : AC-3
Format/Info : Audio Coding 3
Mode extension : CM (complete main)
Format settings, Endianness : Big
Codec ID : A_AC3
Duration : 1h 37mn
Bit rate mode : Constant
Bit rate : 384 Kbps
Channel(s) : 6 channels
Channel positions : Front: L C R, Side: L R, LFE
Sampling rate : 48.0 KHz
Frame rate : 31.250 fps (1536 spf)
Compression mode : Lossy
Stream size : 269 MiB (12%)
Language : English
Default : Yes
Forced : No


Related torrents

Torrent NameAddedSizeSeedLeechHealth
1 Year+ - in TV shows1.87 GB00
1 Year+ - in TV shows2.04 GB00
1 Year+ - in TV shows537.36 MB10
1 Year+ - in TV shows2.04 GB00
1 Year+ - in TV shows2.04 GB00

Note :

Feel free to post any comments about this torrent, including links to Subtitle, samples, screenshots, or any other relevant information. Watch O J Simpson Made in America Part 5 720p HDTV x264-CROOKS[rartv] Free Movies Online, Like 123Movies, Fmovies, Putlockers, Popcorntime, Netflix or Direct Download O J Simpson Made in America Part 5 720p HDTV x264-CROOKS[rartv] via Magnet Link.

Comments (0 Comments)




Please login or create a FREE account to post comments

Latest Searches