Passenger 57 (1992) Wesley Snipes (QualityRip Opt MULTISUBS)_Kuth


    Seeders : 2      Leechers : 1

Hash :E78CB2591A85E18CA3D7512C636B2389EF42093B
Added :1 Year+ in Movies
Size :707.72 MB
Stream :Watch FREE Full Movies @ Movie4u


Passenger 57 (1992) Wesley Snipes (QualityRip Opt MULTISUBS)_Kuth
Download your torrents safely! And Anonymously!








Please Turn on your VPN before Downloading Torrents.
Your IP Address is 35.172.100.232.   And Location United States, Ashburn
Your Internet Service Provider and Government can track your Online Activity!  Protect yourself from expensive lawsuits and fines NOW!
We Strongly Recommend Using Very Cheap VPN for P2P to Anonymize your Torrenting.

Note :

Please Update (Trackers Info) Before Start Torrents Downloading to See Updated Seeders And Leechers for Batter Download Speed.

Trackers List

Tracker NameLast CheckStatusSeedersLeechers
udp://tracker.coppersurfer.tk:801 Year+success21
udp://tracker.zond.org:80/announce1 Year+failed00
http://tracker.thepiratebay.org/announce1 Year+failed00
udp://fr33domtracker.h33t.com:3310/announce1 Year+failed00
http://tracker.istole.it/announce1 Year+failed00
http://bigfoot1942.sektori.org:6969/announce1 Year+failed00
http://announce.torrentsmd.com:6969/announce1 Year+failed00
udp://open.demonii.com:801 Year+failed00
http://tracker.nwps.ws:6969/announce1 Year+failed00
udp://tracker.ilibr.org:6969/announce1 Year+failed00
http://tracker.best-torrents.net:6969/announce1 Year+failed00
http://torrent.gresille.org/announce1 Year+failed00
http://torrent-tracker.ru/announce.php1 Year+failed00
udp://tracker.btzoo.eu:80/announce1 Year+failed00
http://tracker.winglai.com/announce1 Year+failed00
http://tracker.windsormetalbattery.com/announce1 Year+failed00
http://exodus.desync.com:6969/announce1 Year+failed00
udp://10.rarbg.me:80/announce1 Year+failed00
http://fr33dom.h33t.com:3310/announce1 Year+failed00
udp://tracker.1337x.org:80/announce1 Year+failed00
http://tracker.trackerfix.com/announce1 Year+success00
udp://9.rarbg.com:2710/announce1 Year+success00
udp://ipv4.tracker.harry.lu:80/announce1 Year+success00
udp://tracker.istole.it:80/announce1 Year+failed00
udp://tracker.openbittorrent.com:80/announce1 Year+failed00
udp://tracker.publicbt.com:80/announce1 Year+failed00
udp://open.demonii.com:1337/announce1 Year+failed00
udp://tracker.ccc.de:80/announce1 Year+failed00
udp://tracker.token.ro:80/announce1 Year+failed00
http://tracker.publicbt.com/announce1 Year+failed00
http://tracker.ccc.de/announce1 Year+failed00



Torrent File Content (22 files)


Passenger 57 (1992) Wesley Snipes (QualityRip, Eng+Opt.MULTISUBS)_Kuth
     Info about this release.txt -
4.9 KB

    Optional subtitles
          Czech.rar -
561.75 KB

          Dansk.rar -
480.91 KB

          Deutsch.rar -
520.02 KB

          English.rar -
617.2 KB

          Espanol.rar -
588.62 KB

          Francais.rar -
514.72 KB

          Greek.rar -
518.66 KB

          Hebrew.rar -
468.64 KB

          Hrvatski.rar -
535.84 KB

          Hungarian.rar -
502.74 KB

          Islands.rar -
589.1 KB

          Italiano.rar -
535.8 KB

          Nederlands.rar -
548.44 KB

          Norsk.rar -
494.17 KB

          Notes on subtitle files and burning of discs.txt -
2.2 KB

          Polski.rar -
535.75 KB

          Portugues.rar -
515.81 KB

          Suomenkillinen.rar -
451.72 KB

          Svenska.rar -
431.29 KB

          Turkish.rar -
547.1 KB

     Passenger 57 (1992) Wesley Snipes (QualityRip, Opt.MULTISUBS)_Kuth.avi -
697.99 MB



Description



http://www.imdb.com/title/tt0105104/

Optional subtitles in separate idx/sub files:
Croatian (Hrvatski), Czech, Danish, Dutch, English, Finnish, French, German, Greek, Hebrew, Hungarian, Icelandic, Italian, Norwegian, Polish, Portuguese, Spanish, Swedish, Turkish.

(Tip: Click the blue number of Files at top-left to check the contents of this upload and see that your language is really there.)

One of my all-time favourite action films, partly because of the plane which I thought was a DC-10 until I discovered that it is the almost identical Lockhead Tristar.
(For planespotters: The huge DC-10 had the third engine mounted straight through the tail fin. The Tristar had only the inlet opening to the engine in front of the fin.)

Widescreen DVDrip XviD 2-pass 720x288, really great stereo sound AC3.
Burn tested, runs well in both my standalone DivX players.

(This is an improved rip of my own upload from May 2008, which had a resolution of only 608x256p and no subtitles.)


Format/Info : Audio Video Interleave
File size : 698 MiB
Duration : 1h 20mn
Overal bit rate : 1215 Kbps

Video
Format : MPEG-4 Visual
Format profile : Streaming [email protected]
Format settings, BVOP : Yes
Format settings, QPel : No
Format settings, GMC : No warppoints
Format settings, Matrix : Default
Muxing mode : Packet Bitstream
Codec ID : XVID
Codec ID/Hint : XviD
Duration : 1h 20mn
Bit rate : 1077 Kbps
Width : 720 pixels
Height : 288 pixels
Display aspect ratio : 2.500
Frame rate : 25.000 fps
Resolution : 8 bits
Colorimetry : 4:2:0
Scan type : Progressive
Bits/(Pixel*Frame) : 0.208
Stream size : 619 MiB
Writing library : XviD 1.2.0.dev47 (UTC 2006-11-01)

Audio
Format : MPEG Audio
Format version : Version 1
Format profile : Layer 3
Codec ID : 55
Codec ID/Hint : MP3
Duration : 1h 20mn
Bit rate mode : Constant
Bit rate : 128 Kbps
Minimum bit rate : 128 Kbps
Channel(s) : 2 channels
Sampling rate : 48.0 KHz
Resolution : 16 bits
Stream size : 73.5 MiB
Writing library : LAME3.97
Encoding settings : CBR

Source: PAL native (note that PAL/NTSC will give no problems for avi files).

Related torrents

Torrent NameAddedSizeSeedLeechHealth
1 Year+ - in Movies707.72 MB03
1 Year+ - in Movies1.59 GB33
1 Year+ - in Movies720.87 MB40
1 Year+ - in Movies708.69 MB00
1 Year+ - in Movies715.58 MB00

Note :

Feel free to post any comments about this torrent, including links to Subtitle, samples, screenshots, or any other relevant information. Watch Passenger 57 (1992) Wesley Snipes (QualityRip Opt MULTISUBS)_Kuth Free Movies Online, Like 123Movies, Fmovies, Putlockers, Popcorntime, Netflix or Direct Download Passenger 57 (1992) Wesley Snipes (QualityRip Opt MULTISUBS)_Kuth via Magnet Link.

Comments (0 Comments)




Please login or create a FREE account to post comments

Latest Searches