PilotsEye.tv: München - San Francisco 720p (HDTVRip)


    Seeders : 0      Leechers : 0

Torrent Hash :20EEC42210AD22F76225BD5C615212D9DC0D4BFF
Torrent Added :1 Year+ in Movies
Torrent Size :1.91 GB
VPN :Download torrent Safely and Anonymously with Cheap VPN : Get VPN NOW


PilotsEye.tv: München - San Francisco 720p (HDTVRip)
Fast And Direct Download Safely And Anonymously!










Note :

Please Update (Trackers Info) Before Start "PilotsEye.tv: München - San Francisco 720p (HDTVRip)" Torrent Downloading to See Updated Seeders And Leechers for Batter Torrent Download Speed.

Trackers List

Tracker NameLast CheckStatusSeedersLeechers



Torrent File Content (1 file)


     PilotsEye.tv-Munich-SanFrancisco.mp4 -
1.91 GB



Description



PilotsEye.tv: München - San Francisco 720p (HDTVRip) 

Lufthansa Captain Jürgen Raps greets all viewers interested in experiencing an entire flight in the cockpit. Since 9/11, PilotsEYE.tv is the only possibility to enjoy this experience. The authorities...

With all the exhilarating and wonderful moments such as the preparations for takeoff on runway 26R at Munich Airport.

After a perfect westerly takeoff, the plane banks right heading north, which – as chance would have it – takes us directly over Captain Raps’ home town.

Susanne Parusel – on her maiden flight as Senior First Officer – enthuses about being a pilot. Laid-back, humorous, but always in full control, she assists the Captain in his every duty.

Lufthansa LH 458
Airbus A340-600
M?nchen(GER) to San Francisco (USA)


=============================================================
File size : 1.91 GiB
Duration : 46mn 21s

Video
Format : H264/AVC
Bit rate mode : Variable
Bit rate : 5 764 Kbps
Maximum bit rate : 18.3 Mbps
Width : 1 280 pixels
Height : 720 pixels
Display aspect ratio : 16/9
Frame rate : 25.000 fps
Resolution : 24 bits
Colorimetry : 4:2:0
Scan type : Progressive
Bits/(Pixel*Frame) : 0.250
Stream size : 1.87 GiB (98%)

Audio
Format : AAC
Bit rate : 128 Kbps
Maximum bit rate : 134 Kbps
Channel(s) : 2 channels
Sampling rate : 48.0 KHz
Stream size : 42.6 MiB (2%)
Language : English
=============================================================
SEEDING ALL DAYS FROM 10h TO 7h UTC

Related torrents

Torrent NameAddedSizeSeedLeechHealth
9 months ago - in TV shows490.75 MB10
9 months ago - in TV shows10.23 KB00
1 Year+ - in Movies2.17 GB00
1 Year+ - in Other1.49 GB51
1 Year+ - in TV shows253.66 MB04

Note :

Feel free to post any comments about this torrent, including links to Subtitle, samples, screenshots, or any other relevant information. Watch PilotsEye.tv: München - San Francisco 720p (HDTVRip) Full Movie Online Free, Like 123Movies, FMovies, Putlocker, Netflix or Direct Download Torrent PilotsEye.tv: München - San Francisco 720p (HDTVRip) via Magnet Download Link.

Comments (0 Comments)




Please login or create a FREE account to post comments

People Searches