Pinocchio (1940)[Mini BR ISO 1080p AC3][Dubbing PL][Eng]


    Seeders : 2      Leechers : 0

Hash :8B3E7A8D7571A604EE0ED5785387CD903FA32C78
Added :1 Year+ in Movies
Size :4.04 GB
Stream :Watch FREE Full Movies @ Movie4u


Pinocchio (1940)[Mini BR ISO 1080p AC3][Dubbing PL][Eng]
Fast And Direct Download Safely! And Anonymously!








Note :

Please Update (Trackers Info) Before Start Torrents Downloading to See Updated Seeders And Leechers for Batter Download Speed.

Trackers List

Tracker NameLast CheckStatusSeedersLeechers
http://tracker.filetracker.pl:8089/announce1 Year+success20
http://tracker.torrenty.org:6969/announce1 Year+success10
http://torrent.gresille.org/announce1 Year+success00
http://bigfoot1942.sektori.org:6969/announce1 Year+success00
http://announce.torrentsmd.com:6969/announce1 Year+failed00
udp://tracker.coppersurfer.tk:801 Year+success00
udp://tracker.zond.org:80/announce1 Year+failed00
udp://tracker.ilibr.org:6969/announce1 Year+failed00
http://tracker.aletorrenty.pl:2710/announce1 Year+failed00
http://tracker.best-torrents.net:6969/announce1 Year+success00
udp://inferno.demonoid.ooo:3392/announce1 Year+failed00
udp://tracker.aletorrenty.pl:2710/announce1 Year+failed00
http://torrent-tracker.ru/announce.php1 Year+failed00
udp://tracker.btzoo.eu:80/announce1 Year+failed00
http://tracker.winglai.com/announce1 Year+failed00
http://tracker.windsormetalbattery.com/announce1 Year+failed00
http://tracker.publicbt.com/announce1 Year+failed00
http://tracker.istole.it/announce1 Year+failed00
http://tracker.thepiratebay.org/announce1 Year+failed00
http://exodus.desync.com:6969/announce1 Year+failed00
http://tracker.nwps.ws:6969/announce1 Year+success00
udp://10.rarbg.me:80/announce1 Year+failed00
http://fr33dom.h33t.com:3310/announce1 Year+failed00
http://tracker.trackerfix.com/announce1 Year+success00
udp://9.rarbg.com:2710/announce1 Year+success00
udp://ipv4.tracker.harry.lu:80/announce1 Year+failed00
udp://tracker.istole.it:80/announce1 Year+failed00
udp://tracker.openbittorrent.com:80/announce1 Year+success00
udp://tracker.publicbt.com:80/announce1 Year+failed00
udp://open.demonii.com:1337/announce1 Year+success00
udp://tracker.ccc.de:80/announce1 Year+failed00
udp://tracker.token.ro:80/announce1 Year+failed00



Torrent File Content (9 files)


Pinocchio (1940)-alE13
     Pinocchio-alE13.iso -
4.04 GB

    info
          1.jpg -
1.28 MB

     poster.jpg -
138.84 KB

          Nostalgie.jpg -
138.36 KB

     txt.jpg -
50.55 KB

     Pinocchio-alE13.mds -
4.21 KB

          Torrent downloaded from alE13 torrents at BTScene.org.txt -
120 bytes

          Torrent downloaded from demonoid.pw.txt -
46 bytes

          Torrent downloaded from filetracker.pl -
46 bytes



Description



 							image

http://www.filmweb.pl/film/Pinokio-1940-34765
http://www.imdb.com/title/tt0032910/

gatunek: Animacja, Familijny, Fantasy, Musical
premiera: 1940-02-07
produkcja: USA
reżyseria: Ben Sharpsteen, Hamilton Luske
scenariusz: Webb Smith, Ted Sears
muzyka: Leigh Harline , Paul J. Smith
czas: 1h 27mn

opis:

A living puppet, with the help of a cricket as his conscience, must prove
himself worthy to become a real boy.

Urocza bajka o lalce z drewna, która marzy, by stać się prawdziwym chłopcem.
Nim marzenie Pinokia się spełni, przeżyje wiele niebezpiecznych przygód i dzięki
nim ukształtuje swój charakter.

image
image
image
image

obsada:

Dickie Jones, Christian Rub, Mel Blanc (voice)

dane techniczne:

BDMVSTREAM0000.m2ts
Format : BDAV
Format/Info : Blu-ray Video
File size : 4.02 GiB
Duration : 1h 27mn
Overall bit rate mode : Variable
Overall bit rate : 6 558 Kbps
Maximum Overall bit rate : 48.0 Mbps

Video
ID : 4113 (0x1011)
Menu ID : 1 (0x1)
Format : AVC
Format/Info : Advanced Video Codec
Format profile : [email protected]
Format settings, CABAC : Yes
Format settings, ReFrames : 2 frames
Codec ID : 27
Duration : 1h 27mn
Bit rate mode : Variable
Bit rate : 5 389 Kbps
Maximum bit rate : 8 040 Kbps
Width : 1 920 pixels
Height : 1 080 pixels
Display aspect ratio : 16:9
Frame rate : 23.976 fps
Color space : YUV
Chroma subsampling : 4:2:0
Bit depth : 8 bits
Scan type : Progressive
Bits/(Pixel*Frame) : 0.108
Stream size : 3.30 GiB (82%)

Audio #1
ID : 4352 (0x1100)
Menu ID : 1 (0x1)
Format : AC-3
Format/Info : Audio Coding 3
Mode extension : CM (complete main)
Format settings, Endianness : Big
Codec ID : 129
Duration : 1h 27mn
Bit rate mode : Constant
Bit rate : 448 Kbps
Channel(s) : 6 channels
Channel positions : Front: L C R, Side: L R, LFE
Sampling rate : 48.0 KHz
Bit depth : 16 bits
Compression mode : Lossy
Stream size : 281 MiB (7%)

Audio #2
ID : 4353 (0x1101)
Menu ID : 1 (0x1)
Format : AC-3
Format/Info : Audio Coding 3
Mode extension : CM (complete main)
Format settings, Endianness : Big
Codec ID : 129
Duration : 1h 27mn
Bit rate mode : Constant
Bit rate : 448 Kbps
Channel(s) : 6 channels
Channel positions : Front: L C R, Side: L R, LFE
Sampling rate : 48.0 KHz
Bit depth : 16 bits
Compression mode : Lossy
Stream size : 281 MiB (7%)

Text
ID : 4608 (0x1200)
Menu ID : 1 (0x1)
Format : PGS
Codec ID : 144
Delay relative to video : 10s 0ms

Related torrents

Torrent NameAddedSizeSeedLeechHealth
1 Year+ - in Movies4.05 GB24
1 Year+ - in Movies4.09 GB00
1 Year+ - in Movies4.34 GB00
1 Year+ - in Movies4.07 GB02
1 Year+ - in Movies4.1 GB00

Note :

Feel free to post any comments about this torrent, including links to Subtitle, samples, screenshots, or any other relevant information. Watch Pinocchio (1940)[Mini BR ISO 1080p AC3][Dubbing PL][Eng] Free Full Movies Online, Like 123Movies, Fmovies, Putlocker, Netflix or Direct Download Torrent Pinocchio (1940)[Mini BR ISO 1080p AC3][Dubbing PL][Eng] via Magnet Link.

Comments (0 Comments)




Please login or create a FREE account to post comments

People Searches