Presumed Innocent (1990) Harrison Ford (DVDrip Opt MULTISUBS)_Kuth


    Seeders : 1      Leechers : 0

Hash :02807904F319B542BFAA8AEED6EED2C03F6890EB
Added :1 Year+ in Movies
Size :713.42 MB
Stream :Watch FREE Full Movies @ Movie4u


Presumed Innocent (1990) Harrison Ford (DVDrip Opt MULTISUBS)_Kuth
Download your torrents safely! And Anonymously!








Please Turn on your VPN before Downloading Torrents.
Your IP Address is 35.172.100.232.   And Location United States, Ashburn
Your Internet Service Provider and Government can track your Online Activity!  Protect yourself from expensive lawsuits and fines NOW!
We Strongly Recommend Using Very Cheap VPN for P2P to Anonymize your Torrenting.

Note :

Please Update (Trackers Info) Before Start Torrents Downloading to See Updated Seeders And Leechers for Batter Download Speed.

Trackers List

Tracker NameLast CheckStatusSeedersLeechers



Torrent File Content (22 files)


Presumed Innocent (1990) Harrison Ford (DVDrip,Eng+Opt.MULTISUBS)_Kuth
     Info about this release.txt -
4.68 KB

    Optional subtitles
          Czech.rar -
1.16 MB

          Dansk.rar -
972.64 KB

          Deutsch.rar -
939.4 KB

          English.rar -
1.12 MB

          Espanol.rar -
1.04 MB

          Francais.rar -
1.01 MB

          Greek.rar -
918.58 KB

          Hebrew.rar -
888.84 KB

          Hrvatski.rar -
1.07 MB

          Hungarian.rar -
1.16 MB

          Islenska.rar -
1.09 MB

          Italiano.rar -
1.01 MB

          Nederlands.rar -
1010.13 KB

          Norsk.rar -
929.92 KB

          Notes on subtitle files and burning of discs.txt -
2.2 KB

          Polski.rar -
1.15 MB

          Portugues.rar -
931.73 KB

          Suomenkillinen.rar -
973.52 KB

          Svenska.rar -
1.03 MB

          Turkish.rar -
1.04 MB

     Presumed Innocent (1990) Harrison Ford (DVDrip,Opt.MULTISUBS)_Kuth.avi -
694.15 MB



Description



 http://www.imdb.com/title/tt0100404/

Directed by Alan J. Pakula
With Bonnie Bedelia and Brian Dennehy

Optional subtitles in separate idx/sub files:
Croatian (Hrvatski), Czech, Danish, Dutch, English, Finnish, French, German, Greek, Hebrew, Hungarian, Icelandic, Italian, Norwegian, Polish, Portuguese, Spanish, Swedish, Turkish.

Harrison Ford is excellent in this captivating courtroom drama, where he must investigate the murder of his female colleage and lover -- and finds himself framed with evidence planted in the most unexpected places.

My new ripping procedure now produces decent quality for such a long film compressed into just 700 MiB.

Widescreen DVDrip XviD 2-pass 720x368, good stereo sound AC3.
Burn tested, runs well in both my standalone DivX players.

Format/Info : Audio Video Interleave
File size : 694 MiB
Duration : 2h 1mn
Overal bit rate : 797 Kbps

Video
Format : MPEG-4 Visual
Format profile : Streaming [email protected]
Format settings, BVOP : Yes
Format settings, QPel : No
Format settings, GMC : No warppoints
Format settings, Matrix : Default
Muxing mode : Packet Bitstream
Codec ID : XVID
Codec ID/Hint : XviD
Duration : 2h 1mn
Bit rate : 659 Kbps
Width : 720 pixels
Height : 368 pixels
Display aspect ratio : 1.957
Frame rate : 25.000 fps
Resolution : 8 bits
Colorimetry : 4:2:0
Scan type : Progressive
Bits/(Pixel*Frame) : 0.100
Stream size : 574 MiB
Writing library : XviD 1.2.0.dev47 (UTC 2006-11-01)

Audio
Format : MPEG Audio
Format version : Version 1
Format profile : Layer 3
Codec ID : 55
Codec ID/Hint : MP3
Duration : 2h 1mn
Bit rate mode : Constant
Bit rate : 128 Kbps
Minimum bit rate : 128 Kbps
Channel(s) : 2 channels
Sampling rate : 48.0 KHz
Resolution : 16 bits
Stream size : 111 MiB
Writing library : LAME3.97
Encoding settings : CBR

Source: PAL native (note that PAL/NTSC will give no problems for avi files).

Have a look at my other quality rips with optional multisubs at
http://thepiratebay.org/user/Kuthumi/

Related torrents

Torrent NameAddedSizeSeedLeechHealth
1 Year+ - in Movies700.97 MB00
10 months ago - in Other1.53 GB21
1 Year+ - in Movies720.87 MB40
1 Year+ - in Movies708.69 MB00
1 Year+ - in Movies715.58 MB00

Note :

Feel free to post any comments about this torrent, including links to Subtitle, samples, screenshots, or any other relevant information. Watch Presumed Innocent (1990) Harrison Ford (DVDrip Opt MULTISUBS)_Kuth Free Movies Online, Like 123Movies, Fmovies, Putlockers, Popcorntime, Netflix or Direct Download Presumed Innocent (1990) Harrison Ford (DVDrip Opt MULTISUBS)_Kuth via Magnet Link.

Comments (0 Comments)




Please login or create a FREE account to post comments

Latest Searches