Verified torrent

Puss in Boots (2011) DVDRip XviD-MAX


    Seeders : 0      Leechers : 0

Hash :B7B66F195BC715BBA9B6F272E72B3662AEE41F85
Added :1 Year+ by robyrsVerified torrent uploader in Movies
Size :830.73 MB
Stream :Watch FREE Full Movies @ Movie4u


Puss in Boots (2011) DVDRip XviD-MAX
Download your torrents safely! And Anonymously!









Note :

Please Update (Trackers Info) Before Start Torrents Downloading to See Updated Seeders And Leechers for Batter Download Speed.

Trackers List

Tracker NameLast CheckStatusSeedersLeechers



Torrent File Content (2 files)


Puss in Boots (2011) DVDRip XviD-MAX
     Puss in Boots (2011) DVDRip XviD-MAX.avi -
830.73 MB

     DVDRip XviD-MAXSPEED.nfo -
2.98 KB



Description



Screens:

http://www.hotimg.com/direct/q9zCSYG.jpg

http://www.hotimg.com/direct/rVUecaR.jpg

http://www.hotimg.com/direct/rVUecaR.jpg


Alternatives:

http://shareimage.org/images/12s5eh5jt3317fkrsn7o.jpg

http://shareimage.org/images/8o8x12edjdamdywwgsc1.jpg

http://shareimage.org/images/pb7rerlmytd77x93xloi.jpg

http://shareimage.org/images/ilx5l9eb97m8b48u2mvs.jpg

http://shareimage.org/images/j49ko6rp8l692ftx7kpu.jpg


Puss in Boots (2011) DVDRip XviD-MAX
Format : AVI
Format/Info : Audio Video Interleave
Format profile : OpenDML
Duration : 1h 23mn
Overall bit rate : 2 151 Kbps
Writing application : VirtualDubMod 1.5.10.2 (build 2542/release)
Writing library : VirtualDubMod build 2542/release
Original source form : MAX TORRENTZ
Copyright : SIGISMUNT

Video
ID : 0
Format : MPEG-4 Visual
Format profile : [email protected]
Format settings, BVOP : Yes
Format settings, QPel : No
Format settings, GMC : No warppoints
Format settings, Matrix : Custom
Codec ID : XVID
Codec ID/Hint : XviD
Duration : 1h 37mn
Bit rate : 1 950 Kbps
Width : 672 pixels
Height : 288 pixels
Display aspect ratio : 2.35:1
Frame rate : 29.970 fps
Resolution : 24 bits
Colorimetry : 4:2:0
Scan type : Progressive
Bits/(Pixel*Frame) : 0.336
Stream size : 1.33 GiB (91%)
Writing library : XviD 1.2.1 (UTC 2008-12-04)

Audio
ID : 1
Format : MPEG Audio
Format version : Version 1
Format profile : Layer 3
Codec ID : 55
Codec ID/Hint : MP3
Duration : 1h 37mn
Bit rate mode : Constant
Bit rate : 192 Kbps
Channel(s) : 2 channels
Sampling rate : 48.0 KHz
Resolution : 16 bits
Stream size : 134 MiB (9%)
Alignment : Aligned on interleaves
Interleave, duration : 24 ms (0.72 video frame)
Interleave, preload duration : 192 ms

http://www.imdb.com/title/tt0448694/

Source: DVDRip (perfect a/v/sync quality-original source resynced,sample included)
This torrent is not seedbox supported,please seed it to the MAX

Note:If you have something to offer as early releases,seedboxes,links,accounts,etc
please contact us on piratepedia[@]msn/gmail.com or our website torentz 3xforum ro

Puss in Boots (2011) DVDRip XviD-MAX Torrent Free Download


How To Get Your Maxspeed (uTorrent)

Torrent Client - Preferences - Bandwidth - Number of connections - Set aprox. 500 for each
Torrent Client - Preferences - BiTorrent - Protocol Encryption - Forced
Bandwidth Allocation - High (Set download/upload limit - Unlimited)
Stop Other Active Torrents - Start downloading and wait for connections.
Enjoy and Seed for at least 1:1 ratio. Don't forget to say thanks/leave reviews.
Before downloading you should check/google search sample "release name""sample".
Greets to all actual/future p2p/scene QUALITY groups and affiliate websites.
Don't trust IMDb robot or bad ratings,always watch some trailers first.
Ignore stupid comments/fake/mislabeled/no-DVDrips/CAM/TS/RAR uploads.
Please spread this release/torrent to your friends/forums/etc.
If you need translation subs visit some subtitles sites.
Report if you see online streaming or other spam links.
Recommended movie player VLC PLAYER.

Related torrents

Torrent NameAddedSizeSeedLeechHealth
8 months ago - in Anime.4.37 GB70
8 months ago - in Anime.406.89 MB20
8 months ago - in Anime.6.3 GB150
8 months ago - in Other3.47 GB00
1 Year+ - in Movies1.61 GB00

Note :

Feel free to post any comments about this torrent, including links to Subtitle, samples, screenshots, or any other relevant information. Watch Puss in Boots (2011) DVDRip XviD-MAX Free Movies Online, Like 123Movies, Fmovies, Putlockers, Popcorntime, Netflix or Direct Download Puss in Boots (2011) DVDRip XviD-MAX via Magnet Link.

Comments (0 Comments)




Please login or create a FREE account to post comments

Latest Searches