Return to Me 2000 1080p BluRay H264 AAC-RARBG


    Seeders : 0      Leechers : 0

Torrent Hash :F876AF37E2D8374875A9A7820FEECD75D7B03027
Torrent Added :1 Year+ in Other - Other
Torrent Size :2.21 GB
VPN :Download torrents Safely and Anonymously with Cheap VPN : Get VPN NOW


Return to Me 2000 1080p BluRay H264 AAC-RARBG
Fast And Direct Download Safely And Anonymously!







Cheap VPN

Note :

Please Update (Trackers Info) Before Start "Return to Me 2000 1080p BluRay H264 AAC-RARBG" Torrent Downloading to See Updated Seeders And Leechers for Batter Torrent Download Speed.

Trackers List

Tracker NameLast CheckStatusSeedersLeechers
udp://tracker.opentrackr.org:1337/announce1 Year+success00
udp://9.rarbg.me:2740/announce1 Year+success00
http://tracker3.itzmx.com:8080/announce1 Year+failed00
udp://tracker.torrent.eu.org:4511 Year+success00
udp://tracker.mg64.net:6969/announce1 Year+failed00
udp://tracker.torrent.eu.org:451/announce1 Year+success00
udp://open.stealth.si:80/announce1 Year+success00
udp://tracker.internetwarriors.net:1337/announce1 Year+success00
udp://tracker.tiny-vps.com:6969/announce1 Year+success00
udp://9.rarbg.me:2730/announce1 Year+success00
udp://9.rarbg.to:2710/announce1 Year+success00
udp://p4p.arenabg.ch:1337/announce1 Year+failed00
http://tracker.windsormetalbattery.com/announce1 Year+failed00
http://tracker.winglai.com/announce1 Year+failed00
udp://tracker.btzoo.eu:80/announce1 Year+failed00
udp://glotorrents.pw:6969/announce1 Year+failed00
http://torrent-tracker.ru/announce.php1 Year+failed00
udp://bt.xxx-tracker.com:2710/announce1 Year+failed00
udp://public.popcorn-tracker.org:6969/announce1 Year+failed00
http://bt.acg.gg:1578/announce1 Year+failed00
udp://tracker.port443.xyz:6969/announce1 Year+success00
udp://tracker.acg.gg:2710/announce1 Year+failed00
udp://asnet.pw:2710/announce1 Year+failed00
udp://tracker.cyberia.is:6969/announce1 Year+success00
udp://inferno.demonoid.pw:3418/announce1 Year+failed00
udp://tracker.cypherpunks.ru:6969/announce1 Year+failed00
udp://tracker.trackerfix.com:80/announce1 Year+failed00
udp://9.rarbg.to:2720/announce1 Year+success00
udp://tracker.pirateparty.gr:6969/announce1 Year+success00
udp://9.rarbg.to:2770/announce1 Year+success00
udp://9.rarbg.to:2730/announce1 Year+success00
udp://9.rarbg.to:2740/announce1 Year+success00
udp://tracker.vanitycore.co:6969/announce1 Year+failed00
udp://tracker.zer0day.to:1337/announce1 Year+failed00
udp://9.rarbg.me:2770/announce1 Year+success00
udp://9.rarbg.com:2710/announce1 Year+success00
http://exodus.desync.com:6969/announce1 Year+failed00
http://tracker.nwps.ws:6969/announce1 Year+failed00
udp://10.rarbg.me:80/announce1 Year+failed00
udp://12.rarbg.me:80/announce1 Year+failed00
http://fr33dom.h33t.com:3310/announce1 Year+failed00
udp://exodus.desync.com:6969/announce1 Year+success00
udp://11.rarbg.me:80/announce1 Year+failed00
http://tracker.trackerfix.com/announce1 Year+failed00
http://tracker.thepiratebay.org/announce1 Year+failed00
udp://9.rarbg.me:2710/announce1 Year+success00
udp://ipv4.tracker.harry.lu:80/announce1 Year+success00
udp://tracker.istole.it:80/announce1 Year+failed00
udp://tracker.openbittorrent.com:80/announce1 Year+success00
udp://tracker.publicbt.com:80/announce1 Year+failed00
udp://open.demonii.com:1337/announce1 Year+failed00
udp://tracker.ccc.de:80/announce1 Year+failed00
udp://tracker.token.ro:80/announce1 Year+failed00
http://tracker.best-torrents.net:6969/announce1 Year+failed00
udp://ipv6.tracker.harry.lu:80/announce1 Year+success00
udp://tracker.coppersurfer.tk:80/announce1 Year+failed00
udp://tracker.justseed.it:1337/announce1 Year+success00
http://share.camoe.cn:8080/announce1 Year+failed00
udp://thetracker.org:80/announce1 Year+success00
udp://eddie4.nl:6969/announce1 Year+failed00
udp://shadowshq.yi.org:6969/announce1 Year+failed00
http://torrent.gresille.org/announce1 Year+failed00
http://tracker.publicbt.com/announce1 Year+failed00
udp://tracker.ilibr.org:6969/announce1 Year+failed00
udp://tracker.zond.org:80/announce1 Year+failed00
udp://open.demonii.com:801 Year+failed00
udp://tracker.coppersurfer.tk:801 Year+failed00
http://announce.torrentsmd.com:6969/announce1 Year+failed00
http://bigfoot1942.sektori.org:6969/announce1 Year+failed00
http://tracker.istole.it/announce1 Year+failed00
udp://tracker.coppersurfer.tk:6969/announce1 Year+success00



Torrent File Content (4 files)


Return.to.Me.2000.1080p.BluRay.H264.AAC-RARBG
     RARBG.COM.mp4 -
992.93 KB

     RARBG.COM.txt -
34 bytes

     Return.to.Me.2000.1080p.BluRay.H264.AAC-RARBG.mp4 -
2.21 GB

     Return.to.Me.2000.1080p.BluRay.H264.AAC-RARBG.nfo -
3.8 KB



Description



 							image
image


Video
ID : 1
Format : AVC
Format/Info : Advanced Video Codec
Format profile : [email protected]
Format settings, CABAC : Yes
Format settings, ReFrames : 4 frames
Codec ID : avc1
Codec ID/Info : Advanced Video Coding
Duration : 1h 55mn
Bit rate : 2 500 Kbps
Width : 1 920 pixels
Height : 1 040 pixels
Display aspect ratio : 1.85:1
Frame rate mode : Constant
Frame rate : 23.976 fps
Color space : YUV
Chroma subsampling : 4:2:0
Bit depth : 8 bits
Scan type : Progressive
Bits/(Pixel*Frame) : 0.052
Stream size : 2.02 GiB (92%)
Writing library : x264 core 144 r2525M 40bb568
Encoding settings : cabac=1 / ref=4 / deblock=1:-1:-1 / analyse=0x3:0x113 / me=umh / subme=9 / psy=1 / psy_rd=1.00:0.15 / mixed_ref=1 / me_range=24 / chroma_me=1 / trellis=2 / 8x8dct=1 / cqm=0 / deadzone=21,11 / fast_pskip=1 / chroma_qp_offset=-3 / threads=32 / lookahead_threads=4 / sliced_threads=0 / nr=0 / decimate=1 / interlaced=0 / bluray_compat=0 / constrained_intra=0 / bframes=3 / b_pyramid=2 / b_adapt=1 / b_bias=0 / direct=1 / weightb=1 / open_gop=0 / weightp=2 / keyint=250 / keyint_min=25 / scenecut=40 / intra_refresh=0 / rc_lookahead=50 / rc=2pass / mbtree=1 / bitrate=2500 / ratetol=1.0 / qcomp=0.60 / qpmin=0 / qpmax=69 / qpstep=4 / cplxblur=20.0 / qblur=0.5 / vbv_maxrate=31250 / vbv_bufsize=31250 / nal_hrd=none / filler=0 / ip_ratio=1.40 / aq=3:1.00
Encoded date : UTC 1904-01-01 00:00:00
Tagged date : UTC 1904-01-01 00:00:00

Audio
ID : 2
Format : AAC
Format/Info : Advanced Audio Codec
Format profile : LC
Codec ID : 40
Duration : 1h 55mn
Bit rate mode : Constant
Bit rate : 224 Kbps
Channel(s) : 2 channels
Channel(s)_Original : 6 channels
Channel positions : Front: L C R, Side: L R, LFE
Sampling rate : 48.0 KHz
Compression mode : Lossy
Stream size : 186 MiB (8%)
Language : English
Encoded date : UTC 1904-01-01 00:00:00
Tagged date : UTC 1904-01-01 00:00:00




Related torrents

Torrent NameAddedSizeSeedLeechHealth
1 Year+ - in Movies2.21 GB00
1 Year+ - in Movies1.4 GB03
1 Year+ - in Other9.84 GB00
1 Year+ - in Movies9.26 GB00
1 Year+ - in Movies9.92 GB00

Note :

Feel free to post any comments about this torrent, including links to Subtitle, samples, screenshots, or any other relevant information. Watch Return to Me 2000 1080p BluRay H264 AAC-RARBG Full Movie Online Free, Like 123Movies, FMovies, Putlocker, Netflix or Direct Download Torrent Return to Me 2000 1080p BluRay H264 AAC-RARBG via Magnet Download Link.

Comments (0 Comments)




Please login or create a FREE account to post comments

People Searches