Robin Hood Men In Tights 1993 1080p BluRay H264 AAC-RARBG


    Seeders : 0      Leechers : 0

Torrent Hash :948A183663181808AB9A959ADECCC60E11ECC2FB
Torrent Added :1 Year+ in Other - Other
Torrent Size :1.99 GB
VPN :Download torrents Safely and Anonymously with Cheap VPN : Get VPN NOW


Robin Hood Men In Tights 1993 1080p BluRay H264 AAC-RARBG
Fast And Direct Download Safely And Anonymously!







Cheap VPN

Note :

Please Update (Trackers Info) Before Start "Robin Hood Men In Tights 1993 1080p BluRay H264 AAC-RARBG" Torrent Downloading to See Updated Seeders And Leechers for Batter Torrent Download Speed.

Trackers List

Tracker NameLast CheckStatusSeedersLeechers



Torrent File Content (5 files)


Robin.Hood.Men.In.Tights.1993.1080p.BluRay.H264.AAC-RARBG
     RARBG.COM.mp4 -
992.93 KB

     RARBG.COM.txt -
34 bytes

     Robin.Hood.Men.In.Tights.1993.1080p.BluRay.H264.AAC-RARBG.mp4 -
1.99 GB

     Robin.Hood.Men.In.Tights.1993.1080p.BluRay.H264.AAC-RARBG.nfo -
3.92 KB

    Subs
          English.srt -
94.97 KB



Description



 							
https://rarbg.to
Robin.Hood.Men.In.Tights.1993.1080p.BluRay.H264.AAC-RARBG

image
Screens :

image

image

image

image

image
Mediainfo :

Video
ID : 1
Format : AVC
Format/Info : Advanced Video Codec
Format profile : [email protected]
Format settings, CABAC : Yes
Format settings, ReFrames : 4 frames
Codec ID : avc1
Codec ID/Info : Advanced Video Coding
Duration : 1h 44mn
Bit rate : 2 500 Kbps
Width : 1 920 pixels
Height : 1 040 pixels
Display aspect ratio : 1.85:1
Frame rate mode : Constant
Frame rate : 23.976 (23976/1000) fps
Color space : YUV
Chroma subsampling : 4:2:0
Bit depth : 8 bits
Scan type : Progressive
Bits/(Pixel*Frame) : 0.052
Stream size : 1.82 GiB (92%)
Writing library : x264 core 148 r2638M 7599210
Encoding settings : cabac=1 / ref=4 / deblock=1:-1:-1 / analyse=0x3:0x113 / me=umh / subme=9 / psy=1 / psy_rd=1.00:0.15 / mixed_ref=1 / me_range=24 / chroma_me=1 / trellis=2 / 8x8dct=1 / cqm=0 / deadzone=21,11 / fast_pskip=1 / chroma_qp_offset=-3 / threads=32 / lookahead_threads=4 / sliced_threads=0 / nr=0 / decimate=1 / interlaced=0 / bluray_compat=0 / constrained_intra=0 / bframes=3 / b_pyramid=2 / b_adapt=2 / b_bias=0 / direct=3 / weightb=1 / open_gop=0 / weightp=2 / keyint=250 / keyint_min=25 / scenecut=40 / intra_refresh=0 / rc_lookahead=50 / rc=2pass / mbtree=1 / bitrate=2500 / ratetol=1.0 / qcomp=0.60 / qpmin=0 / qpmax=69 / qpstep=4 / cplxblur=20.0 / qblur=0.5 / vbv_maxrate=31250 / vbv_bufsize=31250 / nal_hrd=none / filler=0 / ip_ratio=1.40 / aq=3:1.00
Encoded date : UTC 2016-04-21 07:22:34
Tagged date : UTC 2016-04-21 07:22:34

Audio
ID : 2
Format : AAC
Format/Info : Advanced Audio Codec
Format profile : LC
Codec ID : 40
Duration : 1h 44mn
Bit rate mode : Constant
Bit rate : 224 Kbps
Channel(s) : 2 channels
Channel(s)_Original : 6 channels
Channel positions : Front: L C R, Side: L R, LFE
Sampling rate : 48.0 KHz
Frame rate : 46.875 fps (1024 spf)
Compression mode : Lossy
Stream size : 167 MiB (8%)
Default : Yes
Alternate group : 1
Encoded date : UTC 2016-04-21 07:22:34
Tagged date : UTC 2016-04-21 07:22:34




Related torrents

Torrent NameAddedSizeSeedLeechHealth
1 Year+ - in Movies1.99 GB00
1 Year+ - in Other1.26 GB00
1 Year+ - in Other1.26 GB40
1 Year+ - in Movies4.45 GB2110
1 Year+ - in Movies7.94 GB23

Note :

Feel free to post any comments about this torrent, including links to Subtitle, samples, screenshots, or any other relevant information. Watch Robin Hood Men In Tights 1993 1080p BluRay H264 AAC-RARBG Full Movie Online Free, Like 123Movies, FMovies, Putlocker, Netflix or Direct Download Torrent Robin Hood Men In Tights 1993 1080p BluRay H264 AAC-RARBG via Magnet Download Link.

Comments (0 Comments)




Please login or create a FREE account to post comments

People Searches