Sabrina-CZdub-Season4


    Seeders : 0      Leechers : 0

Hash :42EE42B56CC3A8645326CB20BB8363D4A8BBA21D
Added :1 Year+ in Movies
Size :4.36 GB
Stream :Watch FREE Full Movies @ Movie4u


Sabrina-CZdub-Season4
Download your torrents safely! And Anonymously!








Please Turn on your VPN before Downloading Torrents.
Your IP Address is 3.229.122.166.   And Location United States,
Your Internet Service Provider and Government can track your Online Activity!  Protect yourself from expensive lawsuits and fines NOW!
We Strongly Recommend Using Very Cheap VPN for P2P to Anonymize your Torrenting.

Note :

Please Update (Trackers Info) Before Start Torrents Downloading to See Updated Seeders And Leechers for Batter Download Speed.

Trackers List

Tracker NameLast CheckStatusSeedersLeechers



Torrent File Content (20 files)


Sabrina CZdub Season 4
     Sabrina 04x06 (Prima).avi -
233.02 MB

     Sabrina 04x01 (Prima).avi -
233.01 MB

     Sabrina 04x14 (Prima).avi -
233.01 MB

     Sabrina 04x04 (Prima).avi -
233.01 MB

     Sabrina 04x05 (Prima).avi -
233.01 MB

     Sabrina 04x16 (Prima).avi -
233.01 MB

     Sabrina 04x08 (Prima).avi -
233.01 MB

     Sabrina 04x11 (Prima).avi -
233.01 MB

     Sabrina 04x12 (Prima).avi -
233.01 MB

     Sabrina 04x07 (Prima).avi -
233.01 MB

     Sabrina 04x13 (Prima).avi -
233.01 MB

     Sabrina 04x18 (Prima).avi -
233.01 MB

     Sabrina 04x21 (Prima).avi -
233.01 MB

     Sabrina 04x17 (Prima).avi -
233.01 MB

     Sabrina 04x02 (Prima).avi -
233.01 MB

     Sabrina 04x19 (Prima).avi -
233.01 MB

     Sabrina 04x20 (Prima).avi -
233 MB

     Sabrina 04x15 (Prima).avi -
233 MB

     Sabrina 04x22 (Prima).avi -
232.98 MB

     Sabrina 04x03 (Prima).avi -
40.01 MB



Description



Sabrina Seria 04

Sabrina, the Teenage Witch
Sabrina - mlada carodejnice

http://www.csfd.cz/film/94731-sabrina-mlada-carodejnice-sabrina-the-teenage-witch/
http://www.imdb.com/title/tt0115341/

Komedie / Rodinny / Fantasy
1996-2003
163x22 min
Video: Xvid (512x384)
Audio: CZ (Ch:2, 48000Hz)
Titulky: NE
DVDBonus: NE
DVDMenu: NE

Nedostatky:
04x03 - Necele
04x09 a 04x10 - Chybaju


Complete name : Sabrina 01x01 (Prima).avi
Format : AVI
Format/Info : Audio Video Interleave
File size : 233 MiB
Duration : 21mn 30s
Overall bit rate : 1 514 Kbps
Writing application : VirtualDubMod 1.5.4.1 (build 2178/release)
Writing library : VirtualDubMod build 2178/release

Video
ID : 0
Format : MPEG-4 Visual
Format profile : [email protected]
Format settings, BVOP : Ano
Format settings, QPel : Ne
Format settings, GMC : 0 warppoint
Codec ID : XVID
Codec ID/Hint : XviD
Duration : 21mn 30s
Bit rate : 1 386 Kbps
Width : 512pixely
Height : 384pixely
Display aspect ratio : 4:3
Frame rate : 25,000 fps
Resolution : 24 bits
Colorimetry : 4:2:0
Scan type : Progressive
Bits/(Pixel*Frame) : 0.282
Stream size : 213 MiB (92%)
Writing library : XviD 1.2.0.dev47 (UTC 2006-11-01)

Audio
ID : 1
Format : MPEG Audio
Format version : Version 1
Format profile : Layer 3
Codec ID : 55
Codec ID/Hint : MP3
Duration : 21mn 30s
Bit rate : 115 Kbps
Nominal bit rate : 128 Kbps
Channel(s) : 2 kanály
Sampling rate : 48,0 KHz
Resolution : 16 bits
Stream size : 17,7 MiB (8%)
Interleave, duration : 24 ms (0.60 video frames)
Interleave, preload duration : 551 ms
Writing library : LAME3.97
Encoding settings : -m j -V 4 -q 2 -lowpass 17 --abr 128

Related torrents

Torrent NameAddedSizeSeedLeechHealth
1 Year+ - in Movies4.98 GB12
1 Year+ - in Movies5.92 GB21
1 Year+ - in Movies5.69 GB31
1 Year+ - in Movies5.01 GB00
1 Year+ - in Movies5.01 GB20

Note :

Feel free to post any comments about this torrent, including links to Subtitle, samples, screenshots, or any other relevant information. Watch Sabrina-CZdub-Season4 Free Movies Online, Like 123Movies, Fmovies, Putlockers, Popcorntime, Netflix or Direct Download Sabrina-CZdub-Season4 via Magnet Link.

Comments (0 Comments)




Please login or create a FREE account to post comments

Latest Searches