Satans Schoolgirls [2004] DVDRip XViD-FICO


    Seeders : 18      Leechers : 229

Hash :EB0963830B04D3F77F8528E960AC957C17AE5EFE
Added :1 Year+ in Movies
Size :714.51 MB
Stream :Watch FREE Full Movies @ Movie4u


Satans Schoolgirls [2004] DVDRip XViD-FICO
Download your torrents safely! And Anonymously!








Please Turn on your VPN before Downloading Torrents.
Your IP Address is 34.226.234.20.   And Location United States, Ashburn
Your Internet Service Provider and Government can track your Online Activity!  Protect yourself from expensive lawsuits and fines NOW!
We Strongly Recommend Using Very Cheap VPN for P2P to Anonymize your Torrenting.

Note :

Please Update (Trackers Info) Before Start Torrents Downloading to See Updated Seeders And Leechers for Batter Download Speed.

Trackers List

Tracker NameLast CheckStatusSeedersLeechers



Torrent File Content (6 files)


Satans Schoolgirls [2004] DVDRip XViD-FICO
     fico-ssgirls-sample.avi -
13.62 MB

     fico-ssgirls.avi -
700.82 MB

     fico-ssgirls.nfo -
9.42 KB

     INVITATION!!!.txt -
8.74 KB

     Satan`s Schoolgirls.jpg -
50.76 KB

     Seedboxes!!!.txt -
223 bytes



Description



Satans Schoolgirls [2004] DVDRip XViD-FICO


General
Complete name                    : Satans Schoolgirls [2004] DVDRip XViD-FICO.avi
Format                           : AVI
Format/Info                      : Audio Video Interleave
File size                        : 701 MiB
Duration                         : 1h 1mn
Overall bit rate                 : 1 590 Kbps
Writing application              : Nandub v1.0rc2
Writing library                  : Nandub build 1852/release

Video
Format                           : MPEG-4 Visual
Format profile                   : [email protected]
Format settings, BVOP            : Yes
Format settings, QPel            : No
Format settings, GMC             : No warppoints
Format settings, Matrix          : Default
Codec ID                         : XVID
Codec ID/Hint                    : XviD
Duration                         : 1h 1mn
Bit rate                         : 1 449 Kbps
Width                            : 640 pixels
Height                           : 464 pixels
Display aspect ratio             : 1.379
Frame rate                       : 29.970 fps
Resolution                       : 24 bits
Colorimetry                      : 4:2:0
Scan type                        : Progressive
Bits/(Pixel*Frame)               : 0.163
Stream size                      : 638 MiB (91%)
Writing library                  : XviD 1.0.3 (UTC 2004-12-20)

Audio
Format                           : MPEG Audio
Format version                   : Version 1
Format profile                   : Layer 3
Codec ID                         : 55
Codec ID/Hint                    : MP3
Duration                         : 1h 1mn
Bit rate mode                    : Variable
Bit rate                         : 128 Kbps
Minimum bit rate                 : 128 Kbps
Channel(s)                       : 2 channels
Sampling rate                    : 48.0 KHz
Resolution                       : 16 bits
Stream size                      : 56.2 MiB (8%)
Alignment                        : Aligned on interleaves
Interleave, duration             : 24 ms (0.72 video frame)
Interleave, preload duration     : 138 ms
Writing library                  : LAME3.97 
Encoding settings                : VBR (mtrh)



J. Scott Green ... Father Thomas
Suzi Lorraine ... Sister Helen
Kerri Taylor ... Tammy
Jennifer Litsch ... Julian (as Jane Scarlett)
Shannon Moore ... Karen
Brandy D'Vinn ... Lily
Terry Shane ... Father Wells
T.J. Glenn ... Lawnboy





When seemingly well-intentioned Father Thomas signs on for a quiet summer school session at a rustic school for girls in the country, he gets more than he bargained for. Once inside, Father Thomas has his hands full dealing with four seriously troubled young girls each with a taste for lust, and strict Sister Helen - a disciplinarian who serves up punishment with glee. This Catholic School's foundation is solid evil and the walls are covered with blood. When all hell breaks loose, you can be sure that here no one is what they seem!

Related torrents

Torrent NameAddedSizeSeedLeechHealth
1 Year+ - in Movies714.45 MB126
1 Year+ - in Movies692.54 MB2147
1 Year+ - in Movies713.9 MB00
1 Year+ - in Movies720.91 MB00
1 Year+ - in Movies720.91 MB00

Note :

Feel free to post any comments about this torrent, including links to Subtitle, samples, screenshots, or any other relevant information. Watch Satans Schoolgirls [2004] DVDRip XViD-FICO Free Movies Online, Like 123Movies, Fmovies, Putlockers, Popcorntime, Netflix or Direct Download Satans Schoolgirls [2004] DVDRip XViD-FICO via Magnet Link.

Comments (0 Comments)




Please login or create a FREE account to post comments

Latest Searches