Star Trek[2009]DvDrip-LW-[SharingHQ]


    Seeders : 8      Leechers : 250

Hash :7E0A48F5539DE234FABEE8EC2D20D9F5481AEEB7
Added :1 Year+ in Movies
Size :900.68 MB
Stream :Watch Full Movie @ Movie4u


Star Trek[2009]DvDrip-LW-[SharingHQ]
Direct Download at faster Speed







Warning! Please Download Torrents with a VPN.
Your IP Address is 54.167.47.248.   And Location is United States, Ashburn
Your Internet Service Provider and Government can track your Online Activity!  Protect yourself from expensive lawsuits and fines NOW!
We Strongly Recommend Using Best Cheapest VPN to Anonymize your Torrenting.

Note :

Please Update (Trackers Info) Before Start Torrents Downloading to See Updated Seeders And Leechers for Batter Download Speed.

Trackers List

Tracker NameLast CheckStatusSeedersLeechers



Torrent File Content (6 files)


Star Trek[2009]DvDrip-LW
    Cover
          ST-Cover.jpg -
99.09 KB

    Info
          Movie Info.nfo -
4.11 KB

          Movie Info.txt -
2.94 KB

    Movie
          Star Trek[2009]DvDrip-LW.avi -
900.58 MB

    Trackers
          tracked_by_sharingHQ.net.txt -
48 bytes

          tracked_by_h33t_com.txt -
23 bytes



Description



      ) (`-.                           (` .-') /`           ) (`-.
       ( OO ).                          `.( OO ),'            ( OO ).
      (_/.  _)-.-'),-----. ,--.     ,--./  .--.  .-'),-----.(_/.  _)-.
         `.'  ( OO'  .-.  '|  |.-') |      |  | ( OO'  .-.  '  `.'  /
             /Y   |  | |  ||  | OO )|  |   |  |,/   |  | |  |      /
             _) |  ||  ||  |`-' ||  |.'.|  |_)_) |  ||  |      |
        .'    _) |  | |  (|  '---.'|         |    |  | |  | .'    _)
       /  .'.    `'  '-'  '|      | |   ,'.   |    `'  '-'  '/  .'.  
      '--'   '--'   `-----' `------' '--'   '--'      `-----''--'   '--'


     
ßßßßßßßßßßßßßßßßßßßßßßßßßßßßßßßßßßßßßßßßßßßßßßßßßßßßßßßßßßßßßßßßßßßßßß

                      
Û°°°°°°°°°°°°°°°°°°°°°°°°°°Û
                      ÛÛ Star Trek[2009]DvDrip-LW ÛÛ
                      
Û°°°°°°°°°°°°°°°°°°°°°°°°°°Û

File Name    : Star Trek[2009]DvDrip-LW
Type         : Movie
Format       : AVI
File Size    : 900 MB
Duration     : 02:06:25
Language     : English
Source       : DvD
Subtitles    : None
Genre        : Horror
IMDB Link    : http://www.imdb.com/title/tt0796366/
IMDB Rating  : 8.3/10
IMDB Votes   : 84,996 Votes
    
ÜÜÜÜÜÜÜÜÜÜÜÜÜÜÜÜÜÜÜÜÜÜÜÜÜÜÜÜÜÜÜÜÜÜÜÜÜÜÜÜÜÜÜÜÜÜÜÜÜÜÜÜÜÜÜÜÜÜÜÜÜÜÜÜÜÜÜÜÜÜ
 
                       
Û°°°°°°°°°°°°°°°°°°°°°°°°Û
                       ÛÛ       Video Info       ÛÛ
                       
Û°°°°°°°°°°°°°°°°°°°°°°°°Û

Format                           : MPEG-4 Visual
Format profile                   : Streaming [email protected]
Format settings, BVOP            : Yes
Format settings, QPel            : No
Format settings, GMC             : No warppoints
Format settings, Matrix          : Default (H.263)
Muxing mode                      : Packed bitstream
Codec ID                         : XVID
Codec ID/Hint                    : XviD
Duration                         : 2h 6mn
Bit rate                         : 875 Kbps
Width                            : 640 pixels
Height                           : 272 pixels
Display aspect ratio             : 2.35
Frame rate                       : 23.976 fps
Resolution                       : 24 bits
Colorimetry                      : 4:2:0
Scan type                        : Progressive
Bits/(Pixel*Frame)               : 0.210
Stream size                      : 791 MiB (88%)
Writing library                  : XviD 1.2.1
    
ÜÜÜÜÜÜÜÜÜÜÜÜÜÜÜÜÜÜÜÜÜÜÜÜÜÜÜÜÜÜÜÜÜÜÜÜÜÜÜÜÜÜÜÜÜÜÜÜÜÜÜÜÜÜÜÜÜÜÜÜÜÜÜÜÜÜÜÜÜÜ

                        
Û°°°°°°°°°°°°°°°°°°°°°°°°Û
                        ÛÛ      Sound Info        ÛÛ
                        
Û°°°°°°°°°°°°°°°°°°°°°°°°Û

Format                           : MPEG Audio
Format version                   : Version 1
Format profile                   : Layer 3
Codec ID                         : 55
Codec ID/Hint                    : MP3
Duration                         : 2h 6mn
Bit rate mode                    : Constant
Bit rate                         : 112 Kbps
Channel(s)                       : 2 channels
Sampling rate                    : 48.0 KHz
Resolution                       : 16 bits
Stream size                      : 101 MiB (11%)
Alignment                        : Aligned on interleaves
Interleave, duration             : 42 ms (1.00 video frame)
Interleave, preload duration     : 504 ms
   
ÜÜÜÜÜÜÜÜÜÜÜÜÜÜÜÜÜÜÜÜÜÜÜÜÜÜÜÜÜÜÜÜÜÜÜÜÜÜÜÜÜÜÜÜÜÜÜÜÜÜÜÜÜÜÜÜÜÜÜÜÜÜÜÜÜÜÜÜÜÜ

                         
Û°°°°°°°°°°°°°°°°°°°°°°°°Û
                         ÛÛ          Plot          ÛÛ
                         
Û°°°°°°°°°°°°°°°°°°°°°°°°Û

Capt. Kirk (Chris Pine) and his trusted team on the 
starship USS Enterprise boldly go where no man has 
gone before in this installment of Gene Roddenberry's 
sci-fi franchise that follows the early days of the 
intergalactic adventurers. The crew includes Spock 
(Zachary Quinto), Chekov (Anton Yelchin), Uhura (Zoe 
Saldana), Scotty (Simon Pegg) and Sulu (John Cho). 
Eric Bana co-stars, and Leonard Nimoy appears as an 
older version of Spock.

Starring: Chris Pine, Zachary Quinto

Director: J.J. Abrams
   
ÜÜÜÜÜÜÜÜÜÜÜÜÜÜÜÜÜÜÜÜÜÜÜÜÜÜÜÜÜÜÜÜÜÜÜÜÜÜÜÜÜÜÜÜÜÜÜÜÜÜÜÜÜÜÜÜÜÜÜÜÜÜÜÜÜÜÜÜÜÜ

Related torrents

Torrent NameAddedSizeSeedLeechHealth
6 months ago - in Movies7.52 GB64
6 months ago - in Movies17.68 GB44
1 Year+ - in Movies700.05 MB0211
1 Year+ - in Movies700.62 MB1128
1 Year+ - in Movies696.5 MB40

Note :

Feel free to post any comments about this torrent, including links to Subtitle, samples, screenshots, or any other relevant information. Please Dont Download anything from Comments And Links to Streaming Sites like Watch Online Star Trek[2009]DvDrip-LW-[SharingHQ] Full Movie free etc.

Comments (0 Comments)




Please login or create a FREE account to post comments

Latest Searches