Tango & Cash [1989] 1280x528 HD.Mp4.H264.AAC 5.1 ch.3Li


    Seeders : 0      Leechers : 0

Hash :EF0B62ADED4F20F749437D83FC23C7AD55F8D543
Added :1 Year+ in Movies
Size :1.42 GB
Stream :Watch FREE Full Movies @ Movie4u


Tango & Cash [1989] 1280x528 HD.Mp4.H264.AAC 5.1 ch.3Li
Download your torrents safely! And Anonymously!








Please Turn on your VPN before Downloading Torrents.
Your IP Address is 34.226.234.20.   And Location United States, Ashburn
Your Internet Service Provider and Government can track your Online Activity!  Protect yourself from expensive lawsuits and fines NOW!
We Strongly Recommend Using Very Cheap VPN for P2P to Anonymize your Torrenting.

Note :

Please Update (Trackers Info) Before Start Torrents Downloading to See Updated Seeders And Leechers for Batter Download Speed.

Trackers List

Tracker NameLast CheckStatusSeedersLeechers
http://tracker.mightynova.com:4315/announce1 Year+failed00
http://exodus.desync.com:6969/announce1 Year+success00
http://tracker.thepiratebay.org/announce1 Year+failed00
udp://fr33domtracker.h33t.com:3310/announce1 Year+failed00
http://tracker.istole.it/announce1 Year+failed00
http://bigfoot1942.sektori.org:6969/announce1 Year+success00
http://announce.torrentsmd.com:6969/announce1 Year+success00
udp://tracker.coppersurfer.tk:801 Year+success00
http://www.h33t.com:3310/announce1 Year+failed00
http://tracker.nwps.ws:6969/announce1 Year+success00
udp://tracker.zond.org:80/announce1 Year+failed00
udp://tracker.ilibr.org:6969/announce1 Year+failed00
http://tracker.best-torrents.net:6969/announce1 Year+success00
http://torrent.gresille.org/announce1 Year+success00
http://torrent-tracker.ru/announce.php1 Year+success00
udp://tracker.btzoo.eu:80/announce1 Year+failed00
http://tracker.winglai.com/announce1 Year+success00
http://tracker.windsormetalbattery.com/announce1 Year+success00
udp://open.demonii.com:1337/announce1 Year+success00
http://tracker.publicbt.com/announce1 Year+failed00
http://tracker.ilibr.org:6969/announce1 Year+failed00
udp://tracker.token.ro:80/announce1 Year+failed00
udp://tracker.ccc.de:80/announce1 Year+failed00
udp://tracker.publicbt.com:80/announce1 Year+failed00
udp://tracker.openbittorrent.com:80/announce1 Year+failed00
udp://tracker.istole.it:80/announce1 Year+failed00
udp://ipv4.tracker.harry.lu:80/announce1 Year+failed00
udp://9.rarbg.com:2710/announce1 Year+success00
http://tracker.trackerfix.com/announce1 Year+success00
http://fr33dom.h33t.com:3310/announce1 Year+failed00
udp://10.rarbg.me:80/announce1 Year+failed00



Torrent File Content (11 files)


Tango & Cash [1989] 1280x528 HD.Mp4.H264.AAC 5.1 ch.3Li
    info
          3Li info movie.txt -
4.93 KB

          tracked_by_h33t_com.txt -
23 bytes

     Tango & Cash.mp4 -
1.42 GB

     snapshot20090924164258.jpg -
109.27 KB

     snapshot20090924162602.jpg -
109.05 KB

     snapshot20090924164512.jpg -
94.56 KB

     snapshot20090924164106.jpg -
93.63 KB

     snapshot20090924164235.jpg -
69.32 KB

     snapshot20090924162817.jpg -
63 KB

     snapshot20090924162034.jpg -
58.46 KB

     snapshot20090924162323.jpg -
55.84 KB



Description





General
Complete name : Tango & Cash.mp4
Format : MPEG-4
Format profile : Base Media
Codec ID : isom
File size : 1.42 GiB
Duration : 1h 43mn
Overall bit rate : 1 955 Kbps
Encoded date : UTC 2009-09-23 13:31:59
Tagged date : UTC 2009-09-23 13:31:59

Video
ID : 1
Format : AVC
Format/Info : Advanced Video Codec
Format profile : [email protected]
Format settings, CABAC : Yes
Format settings, ReFrames : 3 frames
Codec ID : avc1
Codec ID/Info : Advanced Video Coding
Duration : 1h 43mn
Bit rate mode : Variable
Bit rate : 1 760 Kbps
Maximum bit rate : 6 245 Kbps
Width : 1 280 pixels
Height : 528 pixels
Display aspect ratio : 2.40:1
Frame rate mode : Constant
Frame rate : 23.976 fps
Resolution : 24 bits
Colorimetry : 4:2:0
Scan type : Progressive
Bits/(Pixel*Frame) : 0.109
Stream size : 1.28 GiB (90%)
Title : Tango & Cash By 3Li
Writing library : x264 core 68

Audio
ID : 2
Format : AAC
Format/Info : Advanced Audio Codec
Format version : Version 4
Format profile : LC
Format settings, SBR : No
Codec ID : 40
Duration : 1h 43mn
Bit rate mode : Variable
Bit rate : 192 Kbps
Maximum bit rate : 219 Kbps
Channel(s) : 6 channels
Channel positions : Front: L C R, Rear: L R, LFE
Sampling rate : 48.0 KHz
Resolution : 16 bits
Stream size : 142 MiB (10%)
Title : Tango & Cash
Language : English
Encoded date : UTC 2009-09-23 13:32:42
Tagged date : UTC 2009-09-23 13:32:48

Related torrents

Torrent NameAddedSizeSeedLeechHealth
1 Year+ - in Movies1.43 GB00
1 Year+ - in Movies1.43 GB02
1 Year+ - in Movies1.44 GB00
1 Year+ - in Movies1.44 GB1216
1 Year+ - in Anime.1.36 GB16

Note :

Feel free to post any comments about this torrent, including links to Subtitle, samples, screenshots, or any other relevant information. Watch Tango & Cash [1989] 1280x528 HD.Mp4.H264.AAC 5.1 ch.3Li Free Movies Online, Like 123Movies, Fmovies, Putlockers, Popcorntime, Netflix or Direct Download Tango & Cash [1989] 1280x528 HD.Mp4.H264.AAC 5.1 ch.3Li via Magnet Link.

Comments (0 Comments)




Please login or create a FREE account to post comments

Latest Searches