The 5th Wave - La Quinta Onda (2016) BRrip XviD - Italian English Ac3 5 1 Sub Ita Eng iCV-MIRCrew


    Seeders : 3      Leechers : 90

Torrent Hash :2228213FDFF6F39AB2BE5C449A4D759D842FB9B2
Torrent Added :1 Year+ in Movies
Torrent Size :1.89 GB
VPN :Download torrent Safely and Anonymously with Cheap VPN : Get VPN NOW











Note :

Please Update (Trackers Info) Before Start "The 5th Wave - La Quinta Onda (2016) BRrip XviD - Italian English Ac3 5 1 Sub Ita Eng iCV-MIRCrew" Torrent Downloading to See Updated Seeders And Leechers for Batter Torrent Download Speed.

Trackers List

Tracker NameLast CheckStatusSeedersLeechers
udp://eddie4.nl:6969/announce1 Year+success390
udp://tracker.opentrackr.org:1337/announce1 Year+success141
udp://tracker.coppersurfer.tk:6969/announce1 Year+success141
udp://tracker.trackerfix.com:80/announce1 Year+failed00
udp://tracker.internetwarriors.net:1337/announce1 Year+success00
udp://poloniumsurfer.tk:6969/announce1 Year+failed00
udp://torrent.gresille.org:80/announce1 Year+success01
udp://9.rarbg.to:2710/announce1 Year+failed00
udp://p4p.arenabg.ch:1337/announce1 Year+success00
udp://tracker.blackunicorn.xyz:6969/announce1 Year+failed00
udp://tracker4.piratux.com:6969/announce1 Year+failed00
udp://glotorrents.pw:6969/announce1 Year+failed00
udp://tracker.openbittorrent.com:80/announce1 Year+failed00
udp://tracker.pomf.se:80/announce1 Year+failed00
http://explodie.org:6969/announce1 Year+success00
http://bigfoot1942.sektori.org:6969/announce1 Year+success00
http://tracker.tfile.me/announce1 Year+success01
udp://tracker.leechers-paradise.org:6969/announce1 Year+failed00
udp://9.rarbg.com:2710/announce1 Year+failed00
udp://9.rarbg.me:2710/announce1 Year+failed00



Torrent File Content (4 files)


La Quinta Onda (2016).ita.eng.sub.ita.eng.iCV-MIRCrew
     La Quinta Onda (2016).ita.eng.sub.ita.eng.iCV-MIRCrew.avi -
1.89 GB

     La Quinta Onda (2016).ita.eng.sub.ita.eng.iCV-MIRCrew.eng.srt -
82.33 KB

     La Quinta Onda (2016).ita.eng.sub.ita.eng.iCV-MIRCrew.ita.srt -
73.12 KB

     La Quinta Onda (2016).ita.eng.sub.ita.eng.iCV-MIRCrew.srt -
289 bytes



Description



 							The 5th Wave - La Quinta Onda (2016).BRrip.XviD - Italian.English.Ac3.5.1.Sub.Ita.Eng.iCV-MIRCrew



image
NO FOUND ONLY ORIGINAL RELEASE

My release is always in double track audio italian and Original audio
for select it use VLC or dvd player home
not use wmp

La Quinta Onda - The 5th Wave (2016)

image



image

Titolo originale The 5th Wave
Lingua originale inglese
Paese di produzione Stati Uniti d'America
Anno 2016
Durata 112 min
Genere fantascienza, thriller
Regia J Blakeson
Soggetto Rick Yancey (romanzo)
Sceneggiatura Susannah Grant
Produttore Tim Headington, Graham King, Tobey Maguire, Matthew Plouffe
Casa di produzione Columbia Pictures, GK Films, Living Films, Material Pictures
Distribuzione (Italia) Warner Bros.
Fotografia Enrique Chediak
Montaggio Paul Rubell
Musiche Henry Jackman
Scenografia Jon Billington

image


Chloë Grace Moretz: Cassie Sullivan
Nick Robinson: Ben Parish / Zombi
Alex Roe: Evan Walker
Liev Schreiber: colonnello Vosch
Maria Bello: sergente Reznik
Maika Monroe: Ringer
Zackary Arthur: Sam Sullivan
Ron Livingston: Oliver Sullivan
Maggie Siff: Lisa Sullivan
Tony Revolori: Dumbo
Talitha Bateman: Teacup

image

Un devastante attacco alieno ha distrutto il pianeta Terra grazie a quattro onde (interruzione elettrica, terremoti e tsunami, epidemie, possessione extraterrestre dei corpi umani), impedendo così ogni tentativo di preparazione e resistenza da parte dell'uomo per l'attacco successivo. All'alba della quinta onda, l'adolescente Cassie Sullivan, rimasta orfana, si mette in marcia alla ricerca del fratellino Sammy, portato in una base militare assieme a molti altri ragazzi con lo scopo di farne dei soldati da parte dell'esercito, che però nasconde un terribile segreto.

image

Four waves of increasingly deadly attacks have left most of Earth in ruin. Against a backdrop of fear and distrust, Cassie is on the run, desperately trying to save her younger brother. As she prepares for the inevitable and lethal fifth wave, Cassie teams up with a young man who may become her final hope - if she can only trust him.

image

image
image
image
image

image


toggle spoiler

General
Complete name : La Quinta Onda (2016).ita.eng.sub.ita.eng.iCV-MIRCrew.avi
Format : AVI
Format/Info : Audio Video Interleave
File size : 1.89 GiB
Duration : 1h 52mn
Overall bit rate : 2 412 Kbps
Movie name : www.icv-crew.org
Writing application : VirtualDubMod 1.5.10.2 (build 2540/release)
Writing library : VirtualDubMod build 2540/release

Video
ID : 0
Format : MPEG-4 Visual
Format profile : [email protected]
Format settings, BVOP : No
Format settings, QPel : No
Format settings, GMC : No warppoints
Format settings, Matrix : Default (H.263)
Codec ID : XVID
Codec ID/Hint : XviD
Duration : 1h 52mn
Bit rate : 1 502 Kbps
Width : 720 pixels
Height : 304 pixels
Display aspect ratio : 2.40:1
Frame rate : 23.976 fps
Color space : YUV
Chroma subsampling : 4:2:0
Bit depth : 8 bits
Scan type : Progressive
Compression mode : Lossy
Bits/(Pixel*Frame) : 0.286
Stream size : 1.18 GiB (62%)
Writing library : XviD 64

Audio #1
ID : 1
Format : AC-3
Format/Info : Audio Coding 3
Mode extension : CM (complete main)
Codec ID : 2000
Duration : 1h 52mn
Bit rate mode : Constant
Bit rate : 448 Kbps
Channel(s) : 6 channels
Channel positions : Front: L C R, Side: L R, LFE
Sampling rate : 48.0 KHz
Bit depth : 16 bits
Compression mode : Lossy
Stream size : 360 MiB (19%)
Alignment : Split accross interleaves
Interleave, duration : 42 ms (1.00 video frame)
Interleave, preload duration : 500 ms

Audio #2
ID : 2
Format : AC-3
Format/Info : Audio Coding 3
Mode extension : CM (complete main)
Codec ID : 2000
Duration : 1h 52mn
Bit rate mode : Constant
Bit rate : 448 Kbps
Channel(s) : 6 channels
Channel positions : Front: L C R, Side: L R, LFE
Sampling rate : 48.0 KHz
Bit depth : 16 bits
Compression mode : Lossy
Stream size : 360 MiB (19%)
Alignment : Split accross interleaves
Interleave, duration : 42 ms (1.00 video frame)
Interleave, preload duration : 500 ms








Related torrents

Torrent NameAddedSizeSeedLeechHealth
1 Year+ - in Movies2.2 GB00
1 Year+ - in Movies1.53 GB00
1 Year+ - in Movies2.06 GB00
1 Year+ - in Movies2.03 GB51
1 Year+ - in Movies1.81 GB00

Note :

Feel free to post any comments about this torrent, including links to Subtitle, samples, screenshots, or any other relevant information. Watch The 5th Wave - La Quinta Onda (2016) BRrip XviD - Italian English Ac3 5 1 Sub Ita Eng iCV-MIRCrew Full Movie Online Free, Like 123Movies, FMovies, Putlocker, Netflix or Direct Download Torrent The 5th Wave - La Quinta Onda (2016) BRrip XviD - Italian English Ac3 5 1 Sub Ita Eng iCV-MIRCrew via Magnet Download Link.

Comments (0 Comments)




Please login or create a FREE account to post comments

People Searches