The Big Bang Theory Season 5 S05 Complete (720p x265 HEVC AAC 5 1 Joy)


    Seeders : 0      Leechers : 2


Please Turn on your VPN before Downloading Torrents.
Your IP Address is 54.81.220.239.   And Location United States, Ashburn
Your Internet Service Provider and Government can track your Online Activity!  Protect yourself from expensive lawsuits and fines NOW!
We Strongly Recommend Using Very Cheap VPN for P2P to Anonymize your Torrenting.

Note :

Please Update (Trackers Info) Before Start Torrents Downloading to See Updated Seeders And Leechers for Batter Download Speed.

Trackers List

Tracker NameLast CheckStatusSeedersLeechers
http://exodus.desync.com:6969/announce1 Year+success00
http://tracker.windsormetalbattery.com/announce1 Year+success00
http://tracker.winglai.com/announce1 Year+success00
udp://tracker.btzoo.eu:80/announce1 Year+success00
http://torrent-tracker.ru/announce.php1 Year+success00
udp://trk.obtracker.net:2710/announce1 Year+success00
http://torrent.gresille.org/announce1 Year+success00
http://tracker.best-torrents.net:6969/announce1 Year+success00
udp://tracker.ilibr.org:6969/announce1 Year+success00
udp://tracker.zond.org:80/announce1 Year+success00
udp://tracker.coppersurfer.tk:801 Year+success02
http://announce.torrentsmd.com:6969/announce1 Year+success00
http://bigfoot1942.sektori.org:6969/announce1 Year+success00
http://tracker.istole.it/announce1 Year+success00
http://tracker.thepiratebay.org/announce1 Year+success00
http://tracker.publicbt.com/announce1 Year+success00
http://tracker.nwps.ws:6969/announce1 Year+success00
udp://10.rarbg.me:80/announce1 Year+success00
http://fr33dom.h33t.com:3310/announce1 Year+success00
udp://coppersurfer.tk:6969/announce1 Year+success00
http://tracker.trackerfix.com/announce1 Year+success00
udp://9.rarbg.com:2710/announce1 Year+success01
udp://9.rarbg.me:2710/announce1 Year+success01
udp://ipv4.tracker.harry.lu:80/announce1 Year+success01
udp://tracker.istole.it:80/announce1 Year+success00
udp://tracker.openbittorrent.com:80/announce1 Year+success00
udp://tracker.publicbt.com:80/announce1 Year+success00
udp://open.demonii.com:1337/announce1 Year+failed00
udp://tracker.ccc.de:80/announce1 Year+success00
udp://tracker.token.ro:80/announce1 Year+success00



Torrent File Content (25 files)


The Big Bang Theory Season 5
     How to play HEVC.txt -
1.36 KB

     The Big Bang Theory S05E01 The Skank Reflex Analysis (720p x265 Joy).m4v -
117.21 MB

     The Big Bang Theory S05E02 The Infestation Hypothesis (720p x265 Joy).m4v -
107.89 MB

     The Big Bang Theory S05E03 The Pulled Groin Extrapolation (720p x265 Joy).m4v -
109.83 MB

     The Big Bang Theory S05E04 The Wiggly Finger Catalyst (720p x265 Joy).m4v -
109.64 MB

     The Big Bang Theory S05E05 The Russian Rocket Reaction (720p x265 Joy).m4v -
117.41 MB

     The Big Bang Theory S05E06 The Rhinitis Revelation (720p x265 Joy).m4v -
117.11 MB

     The Big Bang Theory S05E07 The Good Guy Fluctuation (720p x265 Joy).m4v -
108.44 MB

     The Big Bang Theory S05E08 The Isolation Permutation (720p x265 Joy).m4v -
115.3 MB

     The Big Bang Theory S05E09 The Ornithophobia Diffusion (720p x265 Joy).m4v -
116.74 MB

     The Big Bang Theory S05E10 The Flaming Spittoon Acquisition (720p x265 Joy).m4v -
112.54 MB

     The Big Bang Theory S05E11 The Speckerman Recurrence (720p x265 Joy).m4v -
107.29 MB

     The Big Bang Theory S05E12 The Shiny Trinket Maneuver (720p x265 Joy).m4v -
113.33 MB

     The Big Bang Theory S05E13 The Recombination Hypothesis (720p x265 Joy).m4v -
116.51 MB

     The Big Bang Theory S05E14 The Beta Test Initiation (720p x265 Joy).m4v -
112.02 MB

     The Big Bang Theory S05E15 The Friendship Contraction (720p x265 Joy).m4v -
111.69 MB

     The Big Bang Theory S05E16 The Vacation Solution (720p x265 Joy).m4v -
117.25 MB

     The Big Bang Theory S05E17 The Rothman Disintegration (720p x265 Joy).m4v -
116.01 MB

     The Big Bang Theory S05E18 The Werewolf Transformation (720p x265 Joy).m4v -
114.5 MB

     The Big Bang Theory S05E19 The Weekend Vortex (720p x265 Joy).m4v -
111.16 MB

     The Big Bang Theory S05E20 The Transporter Malfunction (720p x265 Joy).m4v -
117.78 MB

     The Big Bang Theory S05E21 The Hawking Excitation (720p x265 Joy).m4v -
105.27 MB

     The Big Bang Theory S05E22 The Stag Convergence (720p x265 Joy).m4v -
117.76 MB

     The Big Bang Theory S05E23 The Launch Acceleration (720p x265 Joy).m4v -
116.93 MB

     The Big Bang Theory S05E24 The Countdown Reflection (720p x265 Joy).m4v -
116.54 MB



Description



 							**DON'T DOWNLOAD IF YOU ARE NOT GOING TO
SEED**

The Big Bang Theory Season 5 Complete, in 720p in H265 aka HEVC and AAC 5.1 audio all for about 115mb each!
Encoded using 2 pass, from the Bluray, with the slow setting for the highest quality possible.

This upload is a place holder until a 1080p source can be found for season 5. PM me if you find a viable torrent.

image

Any questions, or help playing this file, click on the HEVC banner just above. Please watch before rating or commenting on quality. Thank you KickAss community!

imageimageimageimage


Encoding info:
 show spoiler

Format : MPEG-4
Format profile : Base Media / Version 2
Codec ID : mp42
File size : 118 MiB
Duration : 21mn 35s
Overall bit rate mode : Variable
Overall bit rate : 763 Kbps
Writing application : HandBrake 0.10.0 2014112200

Video
ID : 1
Format : HEVC
Format/Info : High Efficiency Video Coding
Format profile : [email protected]
Codec ID : hev1
Codec ID/Info : High Efficiency Video Coding
Duration : 21mn 35s
Bit rate : 598 Kbps
Width : 1 280 pixels
Height : 720 pixels
Display aspect ratio : 16:9
Frame rate mode : Variable
Frame rate : 23.976 fps
Minimum frame rate : 23.974 fps
Maximum frame rate : 23.981 fps
Color space : YUV
Chroma subsampling : 4:2:0
Bit depth : 8 bits
Bits/(Pixel*Frame) : 0.027
Stream size : 92.3 MiB (78%)
Writing library : x265 1.4:[Windows][GCC 4.9.0][64 bit]
Encoding settings : wpp / ctu=64 / tu-intra-depth=1 / tu-inter-depth=1 / me=1 / subme=2 / merange=57 / no-rect / no-amp / max-merge=2 / temporal-mvp / early-skip / no-fast-cbf / rdpenalty=0 / no-tskip / no-tskip-fast / strong-intra-smoothing / no-lossless / no-cu-lossless / no-constrained-intra / fast-intra / open-gop / interlace=0 / keyint=240 / min-keyint=24 / scenecut=40 / rc-lookahead=15 / bframes=4 / bframe-bias=0 / b-adapt=0 / ref=1 / weightp / no-weightb / aq-mode=2 / aq-strength=1.00 / cbqpoffs=0 / crqpoffs=0 / rd=2 / psy-rd=0.00 / psy-rdoq=0.00 / signhide / lft / sao / no-sao-non-deblock / b-pyramid / no-cutree / rc=2 / pass / bitrate=600 / ratetol=1.0 / qcomp=0.60 / qpmin=0 / qpmax=51 / qpstep=4 / cplxblur=20.0 / qblur=0.5 / ipratio=1.40 / pbratio=1.30
Color primaries : BT.709
Transfer characteristics : BT.709
Matrix coefficients : BT.709
Color range : Limited

Audio
ID : 2
Format : AAC
Format/Info : Advanced Audio Codec
Format profile : HE-AAC / LC
Codec ID : 40
Duration : 21mn 35s
Bit rate mode : Variable
Bit rate : 160 Kbps
Channel(s) : 2 channels
Channel(s)_Original : 6 channels
Channel positions : Front: L C R, Side: L R, LFE
Sampling rate : 48.0 KHz / 24.0 KHz
Compression mode : Lossy
Stream size : 24.7 MiB (21%)
Title : Surround / Surround
Language : English

Menu
ID : 3
Codec ID : text
Duration : 21mn 35s
Language : English
Bit rate mode : CBR
00:00:00.000 : 00:00:00.000
00:03:35.863 : 00:03:35.674
00:13:59.569 : 00:13:58.296
00:20:33.504 : 00:20:32.690
00:21:07.205 : 00:21:06.932



Related torrents

Torrent NameAddedSizeSeedLeechHealth
1 Year+ - in TV shows3.7 GB00
1 Year+ - in TV shows3.96 GB311
1 Year+ - in TV shows3.83 GB355
1 Year+ - in TV shows5.04 GB41
1 Year+ - in TV shows2.68 GB574

Note :

Feel free to post any comments about this torrent, including links to Subtitle, samples, screenshots, or any other relevant information. Watch The Big Bang Theory Season 5 S05 Complete (720p x265 HEVC AAC 5 1 Joy) Free Movies Online, Like 123Movies, Fmovies, Putlockers, Popcorntime, Netflix or Direct Download The Big Bang Theory Season 5 S05 Complete (720p x265 HEVC AAC 5 1 Joy) via Magnet Link.

Comments (0 Comments)




Please login or create a FREE account to post comments

Latest Searches