The Code[2009]DvDRip[Eng]-Uvall


    Seeders : 90      Leechers : 88

Hash :8C6C853DF22F8FBBEF5EE0A1935748DE633D91BD
Added :1 Year+ in Movies
Size :1.18 GB
Stream :Watch Full Movie @ Movie4u


The Code[2009]DvDRip[Eng]-Uvall
Direct Download at faster Speed







Warning! Please Download Torrents with a VPN.
Your IP Address is 54.234.227.202.   And Location is United States, Ashburn
Your Internet Service Provider and Government can track your Online Activity!  Protect yourself from expensive lawsuits and fines NOW!
We Strongly Recommend Using Best Cheapest VPN to Anonymize your Torrenting.

Note :

Please Update (Trackers Info) Before Start Torrents Downloading to See Updated Seeders And Leechers for Batter Download Speed.

Trackers List

Tracker NameLast CheckStatusSeedersLeechers



Torrent File Content (6 files)


The Code[2009]DvDRip[Eng]-Uvall
     The Code[2009]DvDRip[Eng]-Uvall.avi -
1.17 GB

     The Code[2009]DvDRip[Eng]-Uvall.sub -
7.89 MB

     The Code[2009]DvDRip[Eng]-Uvall.idx -
106.92 KB

     Cover.jpg -
50.15 KB

     The Code.nfo -
2.56 KB

     tracked_by_h33t_com.txt -
23 bytes



Description



~~~~~~~~~~~~~~~~~~~~~~~~~~~~~~~~~~~~~~~~~~~~~~~~~~~~~~~~~~~~~~~~~~~
Title: The Code[2009]
~~~~~~~~~~~~~~~~~~~~~~~~~~~~~~~~~~~~~~~~~~~~~~~~~~~~~~~~~~~~~~~~~~~
~~~~~~~~~~~~~~~~~~~~~~~~~~~~~~~~~~~~~~~~~~~~~~~~~~~~~~~~~~~~~~~~~~~
Release Notes

Genre: Crime

Rated: R for sexuality, language and some nudity.

Movie Information: http://www.imdb.com/title/tt1112782/

Plot: A veteran thief recruits a younger crook to help him pull off
one final job in order to repay his debt to the Russian mob.

Format : AVI
Format/Info : Audio Video Interleave
File size : 1.17 GiB
Duration : 1h 43mn
Overall bit rate : 1 617 Kbps
Movie name : Code[2009]DvDRip[Eng]-Uvall
Writing application : Lavf52.33.0

Video
Format : MPEG-4 Visual
Format profile : [email protected]
Format settings, BVOP : No
Format settings, QPel : No
Format settings, GMC : No warppoints
Format settings, Matrix : Default (H.263)
Codec ID : XVID
Codec ID/Hint : XviD
Duration : 1h 43mn
Bit rate : 1 285 Kbps
Width : 704 pixels
Height : 304 pixels
Display aspect ratio : 2.35:1
Frame rate : 29.970 fps
Resolution : 24 bits
Colorimetry : 4:2:0
Scan type : Progressive
Bits/(Pixel*Frame) : 0.200
Stream size : 953 MiB (79%)
Writing library : XviD 1.2.1 (UTC 2008-12-04)

Audio
Format : AC-3
Format/Info : Audio Coding 3
Codec ID : 2000
Duration : 1h 43mn
Bit rate mode : Constant
Bit rate : 320 Kbps
Channel(s) : 6 channels
Channel positions : Front: L C R, Surround: L R, LFE
Sampling rate : 48.0 KHz
Stream size : 237 MiB (20%)
Alignment : Aligned on interleaves
Interleave, duration : 32 ms (0.96 video frame)
~~~~~~~~~~~~~~~~~~~~~~~~~~~~~~~~~~~~~~~~~~~~~~~~~~~~~~~~~~~~~~~~~~~
~~~~~~~~~~~~~~~~~~~~~~~~~~~~~~~~~~~~~~~~~~~~~~~~~~~~~~~~~~~~~~~~~~~
Posted By: Uvall
~~~~~~~~~~~~~~~~~~~~~~~~~~~~~~~~~~~~~~~~~~~~~~~~~~~~~~~~~~~~~~~~~~~

Related torrents

Torrent NameAddedSizeSeedLeechHealth
1 Year+ - in Movies1.2 GB00
1 Year+ - in Movies1.18 GB01
1 Year+ - in Movies1.18 GB367
1 Year+ - in Movies1.2 GB518
1 Year+ - in Movies1.18 GB3313

Note :

Feel free to post any comments about this torrent, including links to Subtitle, samples, screenshots, or any other relevant information. Please Dont Download anything from Comments And Links to Streaming Sites like Watch Online The Code[2009]DvDRip[Eng]-Uvall Full Movie free etc.

Comments (0 Comments)




Please login or create a FREE account to post comments

Latest Searches