The Crew - 2008 DVDrip oddball-ENG


    Seeders : 0      Leechers : 0

Hash :46D4569EF47C9F129A1A960D0C902048E6AD4C54
Added :1 Year+ in Movies
Size :1.18 GB
Stream :Watch Full Movie @ Movie4u


The Crew - 2008 DVDrip oddball-ENG
Direct Download at faster Speed







Warning! Please Download Torrents with a VPN.
Your IP Address is 107.23.129.77.   And Location is United States, Ashburn
Your Internet Service Provider and Government can track your Online Activity!  Protect yourself from expensive lawsuits and fines NOW!
We Strongly Recommend Using Best Cheapest VPN to Anonymize your Torrenting.

Note :

Please Update (Trackers Info) Before Start Torrents Downloading to See Updated Seeders And Leechers for Batter Download Speed.

Trackers List

Tracker NameLast CheckStatusSeedersLeechers



Torrent File Content (3 files)


The Crew - 2008 DVDrip oddball-ENG
     The Crew - 2008 DVDrip oddball-ENG.avi -
1.18 GB

     The Crew DVD Cover.jpg -
4.8 KB

     Reed Me .txt -
58 bytes



Description



`                                                                  
               ,o888888o.     8 888888888o.      8 888888888o.      
            . 8888     `88.   8 8888    `^888.   8 8888    `^888.   
           ,8 8888       `8b  8 8888        `88. 8 8888        `88. 
           88 8888        `8b 8 8888         `88 8 8888         `88 
           88 8888         88 8 8888          88 8 8888          88 
           88 8888         88 8 8888          88 8 8888          88 
           88 8888        ,8P 8 8888         ,88 8 8888         ,88 
           `8 8888       ,8P  8 8888        ,88' 8 8888        ,88' 
            ` 8888     ,88'   8 8888    ,o88P'   8 8888    ,o88P'   
               `8888888P'     8 888888888P'      8 888888888P' 
     
                                   oddball                               
      8 888888888o            .8.  -links  8 8888         8 8888         
      8 8888    `88.         .888. .       8 8888         8 8888         
      8 8888     `88        :88888. c      8 8888         8 8888         
      8 8888     ,88       . `88888. o     8 8888         8 8888         
      8 8888.   ,88'      .8. `88888. m    8 8888         8 8888         
      8 8888888888       .8`8. `88888.     8 8888         8 8888         
      8 8888    `88.    .8' `8. `88888.    8 8888         8 8888         
      8 8888      88   .8'   `8. `88888.   8 8888         8 8888         
      8 8888    ,88'  .888888888. `88888.  8 8888         8 8888         
      8 888888888P   .8'       `8. `88888. 8 888888888888 8 888888888888



The Crew is a 2008 British crime film based on the novel "Outlaws" by Kevin Sampson.
It is set in the criminal underworld of Northern England.

Screen Shots

http://i724.photobucket.com/albums/ww246/oddball-links/crew/5.jpg

http://i724.photobucket.com/albums/ww246/oddball-links/crew/4.jpg

http://i724.photobucket.com/albums/ww246/oddball-links/crew/3.jpg

http://i724.photobucket.com/albums/ww246/oddball-links/crew/2.jpg

http://i724.photobucket.com/albums/ww246/oddball-links/crew/1.jpg



                                    +-+-+-+-+
                                    |c|a|s|t|
                                    +-+-+-+-+
             Actor                                       Role


            Scot Williams ............................. Ged Brennan 
            Kenny Doughty ............................. Ratter 
            Rory McCann ............................... Moby 
            Stephen Graham ............................ Franner 
            Cordelia Bugeja ........................... Debs 
            Mem Ferda ................................. Dusan 
            Philip Olivier ............................ Paul the Hom 
            Mike Dolan ................................ Lucas

General
Complete name : The Crew
Format : AVI
Format/Info : Audio Video Interleave
File size : 1.18 GiB
Duration : 1h 57mn
Overall bit rate : 1 432 Kbps

Video
Format : MPEG-4 Visual
Format profile : Streaming [email protected]
Format settings, BVOP : Yes
Format settings, QPel : No
Format settings, GMC : No warppoints
Format settings, Matrix : Default
Muxing mode : Packed bitstream
Codec ID : XVID
Codec ID/Hint : XviD
Duration : 1h 57mn
Bit rate : 1 228 Kbps
Width : 1 024 pixels
Height : 582 pixels
Display aspect ratio : 16/9
Frame rate : 29.970 fps
Resolution : 24 bits
Colorimetry : 4:2:0
Scan type : Progressive
Bits/(Pixel*Frame) : 0.069
Stream size : 1.01 GiB (86%)
Writing library : XviD 1.1.0 (UTC 2005-11-22)

Audio
Format : MPEG Audio
Format version : Version 1
Format profile : Layer 3
Codec ID : 55
Codec ID/Hint : MP3
Duration : 1h 57mn
Bit rate mode : Constant
Bit rate : 192 Kbps
Channel(s) : 2 channels
Sampling rate : 44.1 KHz
Resolution : 16 bits
Video delay : 26ms
Stream size : 162 MiB (13%)
Alignment : Split accross interleaves
Interleave, duration : 33 ms (1.00 video frame)
Title : Audio Stream
Writing library : LAME3.92

Related torrents

Torrent NameAddedSizeSeedLeechHealth
1 Year+ - in Movies1.17 GB00
1 Year+ - in Movies1.28 GB00
1 Year+ - in Movies1.08 GB7552
1 Year+ - in Movies973.1 MB00
1 Year+ - in Movies992.37 MB10

Note :

Feel free to post any comments about this torrent, including links to Subtitle, samples, screenshots, or any other relevant information. Please Dont Download anything from Comments And Links to Streaming Sites like Watch Online The Crew - 2008 DVDrip oddball-ENG Full Movie free etc.

Comments (0 Comments)




Please login or create a FREE account to post comments

Latest Searches