The Joneses 2009 1080p BluRay H264 AAC-RARBG


    Seeders : 2      Leechers : 1

Hash :615FB7F443A312FA54F3D132A2CCA4261005F79F
Added :1 Year+ in Other - Other
Size :1.83 GB
Stream :Watch FREE Full Movies @ Movie4u


The Joneses 2009 1080p BluRay H264 AAC-RARBG
Fast And Direct Download Safely! And Anonymously!








Note :

Please Update (Trackers Info) Before Start Torrents Downloading to See Updated Seeders And Leechers for Batter Download Speed.

Trackers List

Tracker NameLast CheckStatusSeedersLeechers
udp://9.rarbg.to:2710/announce4 days agosuccess20
udp://tracker.opentrackr.org:1337/announce4 days agosuccess20
udp://9.rarbg.to:2720/announce4 days agosuccess20
udp://9.rarbg.to:2770/announce4 days agosuccess20
udp://9.rarbg.to:2730/announce4 days agosuccess20
udp://9.rarbg.to:2740/announce4 days agosuccess20
udp://tracker.leechers-paradise.org:6969/announce4 days agosuccess10
udp://tracker.zer0day.to:1337/announce4 days agofailed00
udp://torrent.gresille.org:80/announce4 days agofailed00
udp://tracker.tiny-vps.com:6969/announce4 days agosuccess00
udp://tracker.internetwarriors.net:1337/announce4 days agosuccess01
udp://open.stealth.si:80/announce4 days agosuccess00
udp://tracker.torrent.eu.org:451/announce4 days agosuccess00
udp://tracker.mg64.net:6969/announce4 days agofailed00
udp://9.rarbg.me:2740/announce4 days agofailed00
udp://9.rarbg.me:2730/announce4 days agofailed00
udp://9.rarbg.me:2770/announce4 days agofailed00
udp://p4p.arenabg.ch:1337/announce4 days agosuccess00
udp://tracker.pirateparty.gr:6969/announce4 days agofailed00
udp://retracker.lanta-net.ru:2710/announce4 days agosuccess00
udp://tracker.cyberia.is:6969/announce4 days agosuccess00
udp://tracker.port443.xyz:6969/announce4 days agofailed00
udp://eddie4.nl:6969/announce4 days agofailed00
udp://tracker.publicbt.com:80/announce4 days agofailed00
udp://tracker.openbittorrent.com:80/announce6 days agofailed00
udp://ipv4.tracker.harry.lu:80/announce4 days agosuccess01
udp://9.rarbg.me:2710/announce4 days agofailed00
http://tracker.trackerfix.com/announce4 days agofailed00
udp://exodus.desync.com:6969/announce4 days agosuccess00
http://tracker.tfile.me/announce4 days agofailed00
udp://tracker.coppersurfer.tk:6969/announce4 days agosuccess01
http://bigfoot1942.sektori.org:6969/announce4 days agofailed00
http://tracker.publicbt.com/announce4 days agofailed00
http://explodie.org:6969/announce4 days agofailed00
udp://tracker.justseed.it:1337/announce4 days agofailed00
udp://ipv6.tracker.harry.lu:80/announce4 days agosuccess00
udp://tracker.pomf.se:80/announce6 days agofailed00
udp://tracker.trackerfix.com:80/announce4 days agofailed00
udp://bt.xxx-tracker.com:2710/announce4 days agofailed00
udp://glotorrents.pw:6969/announce4 days agofailed00
udp://tracker4.piratux.com:6969/announce4 days agofailed00
udp://tracker.blackunicorn.xyz:6969/announce4 days agofailed00



Torrent File Content (5 files)


The.Joneses.2009.1080p.BluRay.H264.AAC-RARBG
     RARBG.COM.mp4 -
992.93 KB

     RARBG.COM.txt -
34 bytes

    Subs
          subs.srt -
107.59 KB

     The.Joneses.2009.1080p.BluRay.H264.AAC-RARBG.mp4 -
1.83 GB

     The.Joneses.2009.1080p.BluRay.H264.AAC-RARBG.nfo -
3.97 KB



Description



 							
https://rarbg.to
The.Joneses.2009.1080p.BluRay.H264.AAC-RARBG

image
Screens :

image

image

image

image

image
Mediainfo :

Video
ID : 1
Format : AVC
Format/Info : Advanced Video Codec
Format profile : [email protected]
Format settings, CABAC : Yes
Format settings, ReFrames : 4 frames
Codec ID : avc1
Codec ID/Info : Advanced Video Coding
Duration : 1h 35mn
Bit rate : 2 500 Kbps
Width : 1 920 pixels
Height : 808 pixels
Display aspect ratio : 2.40:1
Frame rate mode : Constant
Frame rate : 23.976 (23976/1000) fps
Color space : YUV
Chroma subsampling : 4:2:0
Bit depth : 8 bits
Scan type : Progressive
Bits/(Pixel*Frame) : 0.067
Stream size : 1.67 GiB (92%)
Writing library : x264 core 148 r2638M 7599210
Encoding settings : cabac=1 / ref=4 / deblock=1:-1:-1 / analyse=0x3:0x113 / me=umh / subme=9 / psy=1 / psy_rd=1.00:0.15 / mixed_ref=1 / me_range=24 / chroma_me=1 / trellis=2 / 8x8dct=1 / cqm=0 / deadzone=21,11 / fast_pskip=1 / chroma_qp_offset=-3 / threads=32 / lookahead_threads=4 / sliced_threads=0 / nr=0 / decimate=1 / interlaced=0 / bluray_compat=0 / constrained_intra=0 / bframes=3 / b_pyramid=2 / b_adapt=2 / b_bias=0 / direct=3 / weightb=1 / open_gop=0 / weightp=2 / keyint=250 / keyint_min=25 / scenecut=40 / intra_refresh=0 / rc_lookahead=50 / rc=2pass / mbtree=1 / bitrate=2500 / ratetol=1.0 / qcomp=0.60 / qpmin=0 / qpmax=69 / qpstep=4 / cplxblur=20.0 / qblur=0.5 / vbv_maxrate=31250 / vbv_bufsize=31250 / nal_hrd=none / filler=0 / ip_ratio=1.40 / aq=3:1.00
Encoded date : UTC 2016-04-19 03:05:31
Tagged date : UTC 2016-04-19 03:05:31

Audio
ID : 2
Format : AAC
Format/Info : Advanced Audio Codec
Format profile : LC
Codec ID : 40
Duration : 1h 35mn
Bit rate mode : Constant
Bit rate : 224 Kbps
Channel(s) : 2 channels
Channel(s)_Original : 6 channels
Channel positions : Front: L C R, Side: L R, LFE
Sampling rate : 48.0 KHz
Frame rate : 46.875 fps (1024 spf)
Compression mode : Lossy
Stream size : 154 MiB (8%)
Language : English
Default : Yes
Alternate group : 1
Encoded date : UTC 2016-04-19 03:05:31
Tagged date : UTC 2016-04-19 03:05:31




Related torrents

Torrent NameAddedSizeSeedLeechHealth
1 Year+ - in Other1.16 GB11
1 Year+ - in Movies1.83 GB610
9 months ago - in Movies1.69 GB61
5 months ago - in Movies1.94 GB03
5 months ago - in Movies1.92 GB00

Note :

Feel free to post any comments about this torrent, including links to Subtitle, samples, screenshots, or any other relevant information. Watch The Joneses 2009 1080p BluRay H264 AAC-RARBG Free Full Movies Online, Like 123Movies, Fmovies, Putlocker, Netflix or Direct Download Torrent The Joneses 2009 1080p BluRay H264 AAC-RARBG via Magnet Link.

Comments (0 Comments)




Please login or create a FREE account to post comments

People Searches