The Last Station 2009 720p BluRay H264 AAC-RARBG


    Seeders : 1      Leechers : 0

Hash :C8E3E979F51DD674826C1AF1E358142324922323
Added :1 Year+ in Other - Other
Size :1.36 GB
Stream :Watch FREE Full Movies @ Movie4u


The Last Station 2009 720p BluRay H264 AAC-RARBG
Download your torrents safely! And Anonymously!








Please Turn on your VPN before Downloading Torrents.
Your IP Address is 3.227.233.6.   And Location United States,
Your Internet Service Provider and Government can track your Online Activity!  Protect yourself from expensive lawsuits and fines NOW!
We Strongly Recommend Using Very Cheap VPN for P2P to Anonymize your Torrenting.

Note :

Please Update (Trackers Info) Before Start Torrents Downloading to See Updated Seeders And Leechers for Batter Download Speed.

Trackers List

Tracker NameLast CheckStatusSeedersLeechers
udp://tracker.opentrackr.org:1337/announce20 hours agosuccess10
udp://retracker.lanta-net.ru:2710/announce20 hours agosuccess10
udp://tracker.tiny-vps.com:6969/announce20 hours agosuccess10
udp://open.stealth.si:80/announce20 hours agosuccess10
udp://9.rarbg.me:2770/announce20 hours agofailed00
udp://9.rarbg.to:2710/announce20 hours agofailed00
udp://torrent.gresille.org:80/announce20 hours agofailed00
udp://tracker.internetwarriors.net:1337/announce20 hours agosuccess00
udp://tracker.torrent.eu.org:451/announce20 hours agosuccess00
udp://tracker.mg64.net:6969/announce20 hours agofailed00
udp://9.rarbg.me:2740/announce20 hours agofailed00
udp://9.rarbg.me:2730/announce20 hours agofailed00
udp://p4p.arenabg.com:1337/announce2 days agofailed00
udp://tracker.zer0day.to:1337/announce20 hours agofailed00
udp://9.rarbg.to:2740/announce20 hours agofailed00
udp://9.rarbg.to:2730/announce2 days agosuccess00
udp://9.rarbg.to:2770/announce20 hours agofailed00
udp://tracker.pirateparty.gr:6969/announce20 hours agosuccess00
udp://9.rarbg.to:2720/announce20 hours agofailed00
udp://tracker.cyberia.is:6969/announce20 hours agosuccess00
udp://tracker.port443.xyz:6969/announce20 hours agofailed00
udp://eddie4.nl:6969/announce20 hours agofailed00
udp://tracker.publicbt.com:80/announce20 hours agofailed00
udp://tracker.openbittorrent.com:80/announce20 hours agosuccess00
udp://ipv4.tracker.harry.lu:80/announce20 hours agosuccess00
udp://9.rarbg.me:2710/announce20 hours agofailed00
http://tracker.trackerfix.com/announce20 hours agofailed00
udp://exodus.desync.com:6969/announce20 hours agosuccess00
udp://tracker.leechers-paradise.org:6969/announce20 hours agofailed00
http://tracker.tfile.me/announce20 hours agofailed00
udp://tracker.coppersurfer.tk:6969/announce20 hours agosuccess00
http://bigfoot1942.sektori.org:6969/announce20 hours agofailed00
http://tracker.publicbt.com/announce20 hours agofailed00
http://explodie.org:6969/announce20 hours agofailed00
udp://tracker.justseed.it:1337/announce20 hours agofailed00
udp://ipv6.tracker.harry.lu:80/announce20 hours agosuccess00
udp://tracker.pomf.se:80/announce20 hours agosuccess00
udp://tracker.trackerfix.com:80/announce20 hours agofailed00
udp://bt.xxx-tracker.com:2710/announce20 hours agosuccess00
udp://glotorrents.pw:6969/announce20 hours agofailed00
udp://tracker4.piratux.com:6969/announce20 hours agofailed00
udp://tracker.blackunicorn.xyz:6969/announce20 hours agofailed00
udp://p4p.arenabg.ch:1337/announce20 hours agofailed00



Torrent File Content (4 files)


The.Last.Station.2009.720p.BluRay.H264.AAC-RARBG
     RARBG.COM.mp4 -
992.93 KB

     RARBG.COM.txt -
34 bytes

     The.Last.Station.2009.720p.BluRay.H264.AAC-RARBG.mp4 -
1.36 GB

     The.Last.Station.2009.720p.BluRay.H264.AAC-RARBG.nfo -
4.02 KB



Description



 							
https://rarbg.to
The.Last.Station.2009.720p.BluRay.H264.AAC-RARBG

image
Screens :

image

image

image

image

image
Mediainfo :

Video
ID : 1
Format : AVC
Format/Info : Advanced Video Codec
Format profile : [email protected]
Format settings, CABAC : Yes
Format settings, ReFrames : 4 frames
Codec ID : avc1
Codec ID/Info : Advanced Video Coding
Duration : 1h 52mn
Bit rate : 1 500 Kbps
Width : 1 280 pixels
Height : 548 pixels
Display aspect ratio : 2.35:1
Frame rate mode : Constant
Frame rate : 23.976 (23976/1000) fps
Color space : YUV
Chroma subsampling : 4:2:0
Bit depth : 8 bits
Scan type : Progressive
Bits/(Pixel*Frame) : 0.089
Stream size : 1.18 GiB (87%)
Writing library : x264 core 148 r2597M e86f3a1
Encoding settings : cabac=1 / ref=4 / deblock=1:-1:-1 / analyse=0x3:0x113 / me=umh / subme=9 / psy=1 / psy_rd=1.00:0.15 / mixed_ref=1 / me_range=24 / chroma_me=1 / trellis=2 / 8x8dct=1 / cqm=0 / deadzone=21,11 / fast_pskip=1 / chroma_qp_offset=-3 / threads=32 / lookahead_threads=4 / sliced_threads=0 / nr=0 / decimate=1 / interlaced=0 / bluray_compat=0 / constrained_intra=0 / bframes=3 / b_pyramid=2 / b_adapt=2 / b_bias=0 / direct=3 / weightb=1 / open_gop=0 / weightp=2 / keyint=250 / keyint_min=25 / scenecut=40 / intra_refresh=0 / rc_lookahead=50 / rc=2pass / mbtree=1 / bitrate=1500 / ratetol=1.0 / qcomp=0.60 / qpmin=0 / qpmax=69 / qpstep=4 / cplxblur=20.0 / qblur=0.5 / vbv_maxrate=31250 / vbv_bufsize=31250 / nal_hrd=none / filler=0 / ip_ratio=1.40 / aq=3:1.00
Encoded date : UTC 2016-06-17 00:28:09
Tagged date : UTC 2016-06-17 00:28:09

Audio
ID : 2
Format : AAC
Format/Info : Advanced Audio Codec
Format profile : LC
Codec ID : 40
Duration : 1h 52mn
Duration_LastFrame : 32ms
Bit rate mode : Constant
Bit rate : 224 Kbps
Channel(s) : 2 channels
Channel(s)_Original : 6 channels
Channel positions : Front: L C R, Side: L R, LFE
Sampling rate : 48.0 KHz
Frame rate : 46.875 fps (1024 spf)
Compression mode : Lossy
Stream size : 181 MiB (13%)
Language : English
Default : Yes
Alternate group : 1
Encoded date : UTC 2016-06-17 00:28:09
Tagged date : UTC 2016-06-17 00:28:09




Related torrents

Torrent NameAddedSizeSeedLeechHealth
9 months ago - in Other1.36 GB00
1 Year+ - in Other2.15 GB00
1 Year+ - in Movies1.07 GB00
9 months ago - in Movies2.15 GB00
9 months ago - in Movies1.69 GB00

Note :

Feel free to post any comments about this torrent, including links to Subtitle, samples, screenshots, or any other relevant information. Watch The Last Station 2009 720p BluRay H264 AAC-RARBG Free Movies Online, Like 123Movies, Fmovies, Putlockers, Popcorntime, Netflix or Direct Download The Last Station 2009 720p BluRay H264 AAC-RARBG via Magnet Link.

Comments (0 Comments)




Please login or create a FREE account to post comments

Latest Searches