The Shrine 2010 1080p BluRay H264 AAC-RARBG


    Seeders : 0      Leechers : 2

Hash :722E3B3C3CAF1284AF8524DFED7AA22ABC1AA5B3
Added :1 Year+ in Other - Other
Size :1.54 GB
Stream :Watch FREE Full Movies @ Movie4u


The Shrine 2010 1080p BluRay H264 AAC-RARBG
Download your torrents safely! And Anonymously!









Note :

Please Update (Trackers Info) Before Start Torrents Downloading to See Updated Seeders And Leechers for Batter Download Speed.

Trackers List

Tracker NameLast CheckStatusSeedersLeechers
udp://9.rarbg.to:2720/announce5 months agofailed00
udp://tracker.torrent.eu.org:4515 months agosuccess00
http://tracker3.itzmx.com:8080/announce5 months agofailed00
udp://9.rarbg.me:2740/announce5 months agofailed00
udp://9.rarbg.me:2730/announce5 months agofailed00
udp://9.rarbg.me:2770/announce5 months agofailed00
udp://tracker.zer0day.to:1337/announce5 months agofailed00
udp://tracker.vanitycore.co:6969/announce5 months agofailed00
udp://9.rarbg.to:2740/announce5 months agofailed00
udp://9.rarbg.to:2730/announce5 months agofailed00
udp://9.rarbg.to:2770/announce5 months agofailed00
udp://tracker.pirateparty.gr:6969/announce5 months agofailed00
udp://tracker.mg64.net:6969/announce5 months agofailed00
udp://public.popcorn-tracker.org:6969/announce5 months agofailed00
udp://retracker.lanta-net.ru:2710/announce5 months agosuccess00
udp://tracker.cypherpunks.ru:6969/announce5 months agofailed00
udp://inferno.demonoid.pw:3418/announce5 months agofailed00
udp://tracker.cyberia.is:6969/announce5 months agosuccess00
udp://asnet.pw:2710/announce5 months agofailed00
udp://tracker.acg.gg:2710/announce5 months agofailed00
udp://tracker.port443.xyz:6969/announce5 months agofailed00
http://bt.acg.gg:1578/announce5 months agofailed00
udp://ipv6.tracker.harry.lu:80/announce5 months agosuccess00
udp://9.rarbg.me:2710/announce5 months agofailed00
udp://exodus.desync.com:6969/announce5 months agosuccess00
udp://tracker.leechers-paradise.org:6969/announce5 months agosuccess01
udp://tracker.coppersurfer.tk:6969/announce5 months agofailed00
udp://shadowshq.yi.org:6969/announce5 months agofailed00
udp://eddie4.nl:6969/announce5 months agofailed00
udp://thetracker.org:80/announce5 months agofailed00
http://share.camoe.cn:8080/announce5 months agofailed00
udp://tracker.justseed.it:1337/announce5 months agofailed00
udp://tracker.coppersurfer.tk:80/announce5 months agofailed00
udp://ipv4.tracker.harry.lu:80/announce5 months agosuccess00
udp://tracker.trackerfix.com:80/announce5 months agofailed00
udp://bt.xxx-tracker.com:2710/announce5 months agosuccess00
udp://glotorrents.pw:6969/announce5 months agofailed00
udp://p4p.arenabg.ch:1337/announce5 months agofailed00
udp://9.rarbg.to:2710/announce5 months agofailed00
udp://tracker.opentrackr.org:1337/announce5 months agosuccess02
udp://tracker.tiny-vps.com:6969/announce5 months agosuccess00
udp://tracker.internetwarriors.net:1337/announce5 months agosuccess01
udp://open.stealth.si:80/announce5 months agosuccess01
udp://tracker.torrent.eu.org:451/announce5 months agosuccess00



Torrent File Content (4 files)


The.Shrine.2010.1080p.BluRay.H264.AAC-RARBG
     RARBG.COM.mp4 -
992.93 KB

     RARBG.COM.txt -
34 bytes

     The.Shrine.2010.1080p.BluRay.H264.AAC-RARBG.mp4 -
1.54 GB

     The.Shrine.2010.1080p.BluRay.H264.AAC-RARBG.nfo -
3.96 KB



Description



 							
https://rarbg.to
The.Shrine.2010.1080p.BluRay.H264.AAC-RARBG

image
Screens :

image

image

image

image

image
Mediainfo :

Video
ID : 1
Format : AVC
Format/Info : Advanced Video Codec
Format profile : [email protected]
Format settings, CABAC : Yes
Format settings, ReFrames : 4 frames
Codec ID : avc1
Codec ID/Info : Advanced Video Coding
Duration : 1h 20mn
Bit rate : 2 500 Kbps
Width : 1 920 pixels
Height : 1 080 pixels
Display aspect ratio : 16:9
Frame rate mode : Constant
Frame rate : 25.000 fps
Color space : YUV
Chroma subsampling : 4:2:0
Bit depth : 8 bits
Scan type : Progressive
Bits/(Pixel*Frame) : 0.048
Stream size : 1.41 GiB (92%)
Writing library : x264 core 148 r2638M 7599210
Encoding settings : cabac=1 / ref=4 / deblock=1:-1:-1 / analyse=0x3:0x113 / me=umh / subme=9 / psy=1 / psy_rd=1.00:0.15 / mixed_ref=1 / me_range=24 / chroma_me=1 / trellis=2 / 8x8dct=1 / cqm=0 / deadzone=21,11 / fast_pskip=1 / chroma_qp_offset=-3 / threads=32 / lookahead_threads=4 / sliced_threads=0 / nr=0 / decimate=1 / interlaced=0 / bluray_compat=0 / constrained_intra=0 / bframes=3 / b_pyramid=2 / b_adapt=2 / b_bias=0 / direct=3 / weightb=1 / open_gop=0 / weightp=2 / keyint=250 / keyint_min=25 / scenecut=40 / intra_refresh=0 / rc_lookahead=50 / rc=2pass / mbtree=1 / bitrate=2500 / ratetol=1.0 / qcomp=0.60 / qpmin=0 / qpmax=69 / qpstep=4 / cplxblur=20.0 / qblur=0.5 / vbv_maxrate=31250 / vbv_bufsize=31250 / nal_hrd=none / filler=0 / ip_ratio=1.40 / aq=3:1.00
Encoded date : UTC 2016-04-15 10:54:37
Tagged date : UTC 2016-04-15 10:54:37

Audio
ID : 2
Format : AAC
Format/Info : Advanced Audio Codec
Format profile : LC
Codec ID : 40
Duration : 1h 20mn
Bit rate mode : Constant
Bit rate : 224 Kbps
Channel(s) : 2 channels
Channel(s)_Original : 6 channels
Channel positions : Front: L C R, Side: L R, LFE
Sampling rate : 48.0 KHz
Frame rate : 46.875 fps (1024 spf)
Compression mode : Lossy
Stream size : 129 MiB (8%)
Language : English
Default : Yes
Alternate group : 1
Encoded date : UTC 2016-04-15 10:54:37
Tagged date : UTC 2016-04-15 10:54:37




Related torrents

Torrent NameAddedSizeSeedLeechHealth
1 Year+ - in Movies1.54 GB00
1 Year+ - in Other997.11 MB12
1 Year+ - in Movies999.41 MB00
11 months ago - in Movies2 GB522
11 months ago - in Movies1.88 GB01

Note :

Feel free to post any comments about this torrent, including links to Subtitle, samples, screenshots, or any other relevant information. Watch The Shrine 2010 1080p BluRay H264 AAC-RARBG Free Movies Online, Like 123Movies, Fmovies, Putlockers, Popcorntime, Netflix or Direct Download The Shrine 2010 1080p BluRay H264 AAC-RARBG via Magnet Link.

Comments (0 Comments)




Please login or create a FREE account to post comments

Latest Searches